img image001 image001 image001 image001 image001 image001 image001 image001 image001 image001 image001 image001 image001 image001 image001 image001

Planets Sun Sun Sun
Статистика раздачи
Автор: Снежана | Размер: 4.32 ГБ | Добавлен: 20 май 2018
Раздают: 64    Качают: 5
Скачать торрент
Скачать торрент
Описание торрента

СообщениеДобавлено: 20 май 2018 

Наследница поневоле / Спадкоємиця мимоволі (1-8 серии из 8)


Перевод: Не требуется
Cубтитры: отсутствуют
Формат: WEBRip-AVC, MKV, H.264, AC3
Страна: Украина
Режиссер: Тарас Дударь
Жанр: мелодрама, приключения
Всего серий: 8
Продолжительность: 8 х 00:42:40
Год выпуска: 2018
В ролях: Анастасия Иванова (II), Влад Никитюк, Александр Крыжановский, Ксения Мишина, Георгий Хостикоев, Сергей Сипливый, Екатерина Вайвала, Сергей Чекерес, Светлана Штанько, Игорь Тихомиров, Михаил Досенко, Александр Кобзарь, Алина Коваленко, Алексей Агеев (II), Евгений Давиденко (II), Константин Косинский, Александр Пискунов, Макар Тихомиров, Максим Боряк, Алиса Сиволап, Владлен Пупков, Анастасия Лютова, Евгений Синчуков, Александр Шевчук, Екатерина Варченко, Глеб Михайличенко, Константин Октябрьский, Ольга Ларина, Сергей Солодов, Станислав Москвин, Тарас Цимбалюк, Сергей Петько, Юлия Мотрук, Татьяна Круликовская, Анатолий Сомик, Дмитрий Чернов (II), Дарья Трегубова, Виктор Жданов (III)

Описание: Жизнь Софии проходит между лекциями, подработкой в этнографическом парке аниматором, помощью приемной маме в загородном мотеле. Все, о чем мечтает девушка, это накопить денег и улететь в Турцию на раскопки с молодым профессором, в которого она тайно влюблена. София уверена, что именно там Игорь Святославович, наконец, перестанет относиться к ней, как к простой студентке и это, конечно же, положит начало их долгой и счастливой семейной жизни. Но вдруг Cофия узнает, что ее настоящая фамилия – Изьяславская, и она – наследница древнего рода, своими корнями уходящего до самих Рюриков. Сбудутся ли после этого желания девушки?



Видео: 1024x576p (16:9), 25,000 fps, AVC MPEG-4 (x264), High@L4,1 ~ 1 600 Кбит/сек, 0.109 bit/pixel
Аудио: 48 kHz, AC3, 2/0 (L,R) ch, ~192 kbps





Общее
Уникальный идентификатор : 225905614124088284771798003320481319005 (0xA9F3D6B409FB3F73B01EECCE128B085D)
Полное имя : E:\Закачка-2\01.Naslednica.po.nevole.(2018).WEBRip.(AVC).by.Серый1779.Files-x.mkv
Формат : Matroska
Версия формата : Version 2
Размер файла : 547 Мбайт
Продолжительность : 42 м.
Общий поток : 1791 Кбит/сек
Дата кодирования : UTC 2018-04-17 00:33:57
Программа кодирования : mkvmerge v7.8.0 ('River Man') 32bit built on Apr 3 2015 12:11:22
Библиотека кодирования : libebml v1.3.1 + libmatroska v1.4.2

Видео
Идентификатор : 1
Формат : AVC
Формат/Информация : Advanced Video Codec
Профиль формата :
Параметр CABAC формата : Да
Параметр ReFrames формата : 9 кадров
Идентификатор кодека : V_MPEG4/ISO/AVC
Продолжительность : 42 м.
Битрейт : 1600 Кбит/сек
Ширина : 1024 пикселя
Высота : 576 пикселей
Соотношение сторон : 16:9
Режим частоты кадров : Постоянный
Частота кадров : 25,000 кадров/сек
Цветовое пространство : YUV
Субдискретизация насыщенности : 4:2:0
Битовая глубина : 8 бит
Тип развёртки : Прогрессивная
Бит/(Пиксели*Кадры) : 0.109
Размер потока : 477 Мбайт (87%)
Библиотека кодирования : x264 core 146 r2538 121396c
Настройки программы : cabac=1 / ref=9 / deblock=1:-2:-1 / analyse=0x3:0x133 / me=umh / subme=9 / psy=1 / psy_rd=1.00:0.15 / mixed_ref=1 / me_range=32 / chroma_me=1 / trellis=2 / 8x8dct=1 / cqm=0 / deadzone=21,11 / fast_pskip=0 / chroma_qp_offset=-3 / threads=18 / lookahead_threads=3 / sliced_threads=0 / nr=0 / decimate=1 / interlaced=0 / bluray_compat=0 / constrained_intra=0 / bframes=9 / b_pyramid=2 / b_adapt=2 / b_bias=0 / direct=1 / weightb=1 / open_gop=0 / weightp=2 / keyint=250 / keyint_min=25 / scenecut=40 / intra_refresh=0 / rc=2pass / mbtree=0 / bitrate=1600 / ratetol=1.0 / qcomp=0.60 / qpmin=0 / qpmax=69 / qpstep=4 / cplxblur=20.0 / qblur=0.5 / ip_ratio=1.40 / pb_ratio=1.30 / aq=2:1.00
Default : Да
Forced : Нет
Цветовой диапазон : Limited
Основные цвета : BT.709
Характеристики трансфера : BT.709
Коэффициенты матрицы : BT.709

Аудио
Идентификатор : 2
Формат : AC-3
Формат/Информация : Audio Coding 3
Расширение режима : CM (complete main)
Параметр Endianness формата : Big
Идентификатор кодека : A_AC3
Продолжительность : 42 м.
Вид битрейта : Постоянный
Битрейт : 192 Кбит/сек
Каналы : 2 канала
Расположение каналов : Front: L R
Частота : 48,0 КГц
Частота кадров : 31,250 кадров/сек (1536 spf)
Метод сжатия : С потерями
Размер потока : 58,6 Мбайт (11%)
Default : Да
Forced : Нет





   Похожие торренты   Торрент   Размер 
В этой теме нет новых непрочитанных сообщений. Наследница поневоле (1-8 серии из 8) (Тарас Дударь) [2018, мелодрама, приключения, WEBRip]

108 | 10

4.3 ГБ

В этой теме нет новых непрочитанных сообщений. Наследница поневоле (1-6 серии из 8) (Тарас Дударь) [2018, мелодрама, приключения, WEBRip-AVC]

2 | 0

3.22 ГБ

В этой теме нет новых непрочитанных сообщений. Наследница поневоле (1-4 серии из 8) (Тарас Дударь) [2018, мелодрама, приключения, WEBRip ]

7 | 0

2.15 ГБ

В этой теме нет новых непрочитанных сообщений. Наследница поневоле (1-2 серии из 8) (Тарас Дударь) [2018, мелодрама, приключения, WEBRip 720p]

2 | 0

1.93 ГБ

В этой теме нет новых непрочитанных сообщений. Наследница поневоле (1-8 серии из 8) (Тарас Дударь) [2018, мелодрама, приключения, WEBRip 720p]

40 | 6

7.68 ГБ

В этой теме нет новых непрочитанных сообщений. Нacлeдницa поневоле (1-8 серии из 8) (Тарас Дударь) [2018, мелодрама, приключения, HDTVRip 720p]

43 | 4

9.77 ГБ

В этой теме нет новых непрочитанных сообщений. Наследница поневоле [01-08 из 08] (2018) HDTVRip

66 | 15

4.57 ГБ




Вы не можете начинать темы
Вы не можете отвечать на сообщения
Вы не можете редактировать свои сообщения
Вы не можете удалять свои сообщения
Вы не можете добавлять вложения

Перейти:  
 Вход
ppkBB3cker v.2 © 2008-2014 @ PPK
[ Time : 0.038s | 18 Queries | GZIP : Off ]

cron