img image001 image001 image001 image001 image001 image001 image001 image001 image001 image001 image001 image001 image001 image001 image001 image001

Planets Sun Sun Sun
Статистика раздачи
Автор: Снежана | Размер: 6.74 ГБ | Добавлен: 20 май 2018
Раздают: 2    Качают: 0
Скачать торрент
Скачать торрент
Описание торрента

СообщениеДобавлено: 20 май 2018 

Путешествие к центру души (1-8 серии из 16)

Перевод: Не требуется, cубтитры: отсутствуют
Формат: WEB-DL 720p , MKV, H.264, AC3
Страна: Украина
Режиссер: Дмитрий Матов
Жанр: мелодрама
Всего серий: 16
Продолжительность: 8 х ~ 00:44:55
Год выпуска: 2018

В ролях: Мария Баева, Анастасия Иванова (II), Александр Робак, Андрей Аверков, Игорь Петрусенко, Екатерина Семёнова, Игорь Скрипко, Даниил Мирешкин, Ольга Радчук, Артём Позняк, Константин Корецкий, Алексей Агопьян, Владимир Абазопуло (младший), Лариса Кадочникова, Диана Розовлян, Людмила Загорская, Сергей Деньга, Инна Мирошниченко, Наталья Кленина, Сергей Сипливый, Владислав Писаренко, Ахмед Эсмурзиев, Заза Чантурия, Алексей Нагрудный

Описание: Сага о судьбах двух девушек – Риты и Веры, ставших ближайшими подругами в переломный исторический момент распада СССР. История развивается на протяжении двадцати лет. Из-за любви к одному мужчине – Максиму, Рита и Вера из лучших подруг превращаются в смертельно опасных друг для друга врагов. Коварная Вера мучительно завидуя Рите мечтает прибрать к рукам не только ее любимого, но и Ритины деньги и Ритину жизнь. А Рита хочет начать все с чистого листа. И судьба дает каждой из них уникальный шанс: начать жизнь заново. Но старые обиды и грехи не позволяют Вере забыть о прошлом и перестать ненавидеть более удачливую и чистую подругу Риту.

Рейтинг и доп. информация:


Видео: 1280x720 (16:9), 25 fps, AVC MPEG-4 (x264), ~ 2450 kbps avg, 0.106 bit/pixel
Аудио: 48 kHz, AC3, 2/0 (L,R) ch, ~192 kbps
Внимание! Раздача ведётся путём добавления новых серий. При каждом добавлении создаётся новый торрент.
Чтобы начать докачку новой серии, пользователям необходимо сделать следующее:
1. Остановить скачивание.
2. Удалить старый торрент у себя из клиента (старые серии удалять не надо).
3. Скачать новый торрент и запустить его у себя в клиенте вместо старого, при этом указать клиенту путь в старую папку куда и должно происходить скачивание новых серий. Ваш клиент при этом должен произвести хеширование (проверку) старой папки и будет докачивать только те серии, которых у вас ещё нет. Старые серии при этом не удаляются, а продолжают раздаваться! Eсли вы уже удалили старые серии, то предотвратить повторную закачку старых серий можно, отжав галочку в соответствующих местах при запуске нового торрента.


Общее
Уникальный идентификатор : 286015600668891971285687524290024492579 (0xD72C99DA6A783679115B9BB07790CE23)
Полное имя : C:\Путешествие к центру души.2018.WEB-DL (720p).by.Nicodem.Files-x\01.Путешествие к центру души.2018.WEB-DL (720p).by.Nicodem.Files-x.mkv
Формат : Matroska
Версия формата : Version 4 / Version 2
Размер файла : 883 Мбайт
Продолжительность : 45 м. 46 с.
Режим общего битрейта : Переменный
Общий поток : 2696 Кбит/сек
Программа кодирования : Lavf56.36.100
Библиотека кодирования : Lavf56.36.100

Видео
Идентификатор : 1
Формат : AVC
Формат/Информация : Advanced Video Codec
Профиль формата :
Настройки формата : CABAC / 3 Ref Frames
Параметр CABAC формата : Да
Параметр RefFrames формата : 3 кадра
Идентификатор кодека : V_MPEG4/ISO/AVC
Продолжительность : 45 м. 46 с.
Вид битрейта : Переменный
Битрейт : 2451 Кбит/сек
Максимальный битрейт : 4000 Кбит/сек
Ширина : 1280 пикселей
Высота : 720 пикселей
Соотношение сторон : 16:9
Режим частоты кадров : Постоянный
Частота кадров : 25,000 кадров/сек
Стандарт вещания : PAL
Цветовое пространство : YUV
Субдискретизация насыщенности : 4:2:0
Битовая глубина : 8 бит
Тип развёртки : Прогрессивная
Бит/(Пиксели*Кадры) : 0.106
Размер потока : 802 Мбайт (91%)
Default : Да
Forced : Нет
Цветовой диапазон : Limited

Аудио
Идентификатор : 2
Формат : AC-3
Формат/Информация : Audio Coding 3
Идентификатор кодека : A_AC3
Продолжительность : 45 м. 46 с.
Вид битрейта : Постоянный
Битрейт : 192 Кбит/сек
Каналы : 2 канала
Расположение каналов : Front: L R
Частота : 44,1 КГц
Частота кадров : 28,711 кадров/сек (1536 SPF)
Битовая глубина : 16 бит
Метод сжатия : С потерями
Задержка видео : -40 мс.
Размер потока : 62,9 Мбайт (7%)
Язык : unknown
ServiceKind/String : Complete Main
Default : Да
Forced : Нет








   Похожие торренты   Торрент   Размер 
В этой теме нет новых непрочитанных сообщений. Путешествие к центру души (1-4 серии из 16) (Дмитрий Матов) [2018, мелодрама, WEBRip 720p]

4 | 0

4 ГБ

В этой теме нет новых непрочитанных сообщений. Путешествие к центру души (1-2 серии из 16) (Дмитрий Матов) [2018, мелодрама, WEBRip 720p]

2 | 0

2 ГБ

В этой теме нет новых непрочитанных сообщений. Путешествие к центру души (1-2 серии из 16) (Дмитрий Матов) [2018, мелодрама, WEBRip-AVC]

7 | 0

1.13 ГБ

В этой теме нет новых непрочитанных сообщений. Путешествие к центру души (1-4 серии из 16) (Дмитрий Матов) [2018, мелодрама, WEBRip-AVC]

10 | 0

2.26 ГБ

В этой теме нет новых непрочитанных сообщений. Путешествие к центру души (1-6 серии из 16) (Дмитрий Матов) [2018, мелодрама, WEBRip-AVC]

7 | 4

3.38 ГБ

В этой теме нет новых непрочитанных сообщений. Путешествие к центру души (1-8 серии из 16) (Дмитрий Матов) [2018, мелодрама, WEBRip-AVC]

11 | 2

4.5 ГБ

В этой теме нет новых непрочитанных сообщений. Путешествие к центру души (1-2 серии из 16) (Дмитрий Матов) [2018, мелодрама, WEBRip]

12 | 6

1.17 ГБ




Вы не можете начинать темы
Вы не можете отвечать на сообщения
Вы не можете редактировать свои сообщения
Вы не можете удалять свои сообщения
Вы не можете добавлять вложения

Перейти:  
 Вход
ppkBB3cker v.2 © 2008-2014 @ PPK
[ Time : 0.039s | 18 Queries | GZIP : Off ]

cron