img image001 image001 image001 image001 image001 image001 image001 image001 image001 image001 image001 image001 image001 image001 image001 image001

Planets Sun Sun Sun
Статистика раздачи
Автор: Снежана | Размер: 9.18 ГБ | Добавлен: 22 май 2018
Раздают: 12    Качают: 2
Скачать торрент
Скачать торрент
Описание торрента

СообщениеДобавлено: 22 май 2018 

Практика (2 сезон 1-8 серии из 40)

Перевод: Не требуется, cубтитры: отсутствуют
Формат: WEB-DL 720p, MKV, H.264, AC3
Страна: Россия
Режиссер: Андрей Силкин
Жанр: драма
Всего серий: 40
Продолжительность: 8 х ~ 00:46:00
Год выпуска: 2018

В ролях: Ксения Лаврова-Глинка, Эльдар Лебедев, Пётр Баранчеев, Ольга Чудакова, Иван Шибанов, Елизавета Лотова, Максим Костромыкин, Дарья Хорошилова, Ирина Чипиженко, Лилия Кондрова, Олег Шкловский, Борис Хвошнянский, Вячеслав Жолобов, Эдуард Айткулов, Руслан Щедрин, Олег Морозов, Михаил Волков (II), Антон Зиновьев, Антон Ансимов, Владимир Носик, Светлана Малахова, Семён Шемес, Дарья Фекленко, Алексей Тихонов, Полина Стремоусова, Алексей Шемес, Иван Агапов, Евгений Михеев, Алёна Ковалёва, Алексей Кузьмин, Александр Мякушко, Наталия Гаранина, Галина Чурилина, Илья Ильиных, Мария Палей, Александр Присмотров-Белов, Михаил Присмотров-Белов, Ксения Щербакова, Дарья Мингазетдинова, Сергей Погосян, Дмитрий Ратомский, Евгений Харитонов (II), Веста Буркот, Евгений Дакот, Валерия Бурдужа, Николай Хмелёв (II), Анастасия Чиркина, Евгений Штырбул, Надежда Подъяпольская, Александр Жоголь, Надежда Аникина, Николай Аверюшкин, Анна Васильева (IV), Александр Лимин, Евгений Бакалов, Олег Аккузин, Вероника Кузнецова, Анастасия Калашникова, Кирилл Чернышенко, Сергей Воронов (III), Марина Поляк, Мария Гамаюн, Елена Ордынская, Лада Чуровская, Андрей Москвичёв, Юлия Хамитова, Екатерина Коновалова, Александра Скачкова, Юлия Полынская, Александр Андриенко

Описание: Прошел год. В Приемном отделении по-прежнему ни минуты покоя. У каждого пациента – своя боль, а Женя, Илья, Оля и Слава делают все, чтобы спасти каждого. Завтра у Жени и Ильи важный день – их свадьба. Кажется, что все препятствия, наконец, позади. Даже Степан делает вид, что смирился. Из-за рецидива болезни Гиппократ вынужден оставить работу. На его место приходит Павел Грачев – бывший учитель Жени и ее первая любовь. Степан занимается поиском маньяка. В ход расследования активно вмешивается журналистка Вика. Но вскоре становится понятно, что она хочет помочь Илье, потому что влюблена в него.
«Спасая жизни»

Рейтинг и доп. информация:


Видео: 1280x720 (16:9), 25 fps, AVC MPEG-4 (x264), ~ 3200 kbps avg, 0.139 bit/pixel
Аудио: 48 kHz, AC3, 2/0 (L,R) ch, ~192 kbps
Внимание! Раздача ведётся путём добавления новых серий. При каждом добавлении создаётся новый торрент.
Чтобы начать докачку новой серии, пользователям необходимо сделать следующее:
1. Остановить скачивание.
2. Удалить старый торрент у себя из клиента (старые серии удалять не надо).
3. Скачать новый торрент и запустить его у себя в клиенте вместо старого, при этом указать клиенту путь в старую папку куда и должно происходить скачивание новых серий. Ваш клиент при этом должен произвести хеширование (проверку) старой папки и будет докачивать только те серии, которых у вас ещё нет. Старые серии при этом не удаляются, а продолжают раздаваться! Eсли вы уже удалили старые серии, то предотвратить повторную закачку старых серий можно, отжав галочку в соответствующих местах при запуске нового торрента.


Общее
Уникальный идентификатор : 234381989006361047519617984089987832634 (0xB05454403DAEBAC68D4DD3CE64AD5B3A)
Полное имя : C:\Практика 2 (2018).WEB-DL 720p.Files-x\01.Практика 2 (2018).WEB-DLp720.Files-x.mkv
Формат : Matroska
Версия формата : Version 2
Размер файла : 1,07 Гбайт
Продолжительность : 46 м. 21 с.
Режим общего битрейта : Постоянный
Общий поток : 3311 Кбит/сек
Дата кодирования : UTC 2018-05-14 19:42:44
Программа кодирования : mkvmerge v7.8.0 ('River Man') 32bit built on Apr 3 2015 12:11:22
Библиотека кодирования : libebml v1.3.1 + libmatroska v1.4.2

Видео
Идентификатор : 1
Формат : AVC
Формат/Информация : Advanced Video Codec
Профиль формата :
Настройки формата : CABAC / 4 Ref Frames
Параметр CABAC формата : Да
Параметр RefFrames формата : 4 кадра
Идентификатор кодека : V_MPEG4/ISO/AVC
Продолжительность : 46 м. 21 с.
Вид битрейта : Постоянный
Битрейт : 3200 Кбит/сек / 3200 Кбит/сек
Ширина : 1280 пикселей
Высота : 720 пикселей
Соотношение сторон : 16:9
Режим частоты кадров : Постоянный
Частота кадров : 25,000 кадров/сек
Цветовое пространство : YUV
Субдискретизация насыщенности : 4:2:0
Битовая глубина : 8 бит
Тип развёртки : Прогрессивная
Бит/(Пиксели*Кадры) : 0.139
Размер потока : 1012 Мбайт (92%)
Библиотека кодирования : x264 core 148
Настройки программы : cabac=1 / ref=2 / deblock=1:0:0 / analyse=0x3:0x113 / me=hex / subme=6 / psy=1 / psy_rd=1.00:0.00 / mixed_ref=1 / me_range=16 / chroma_me=1 / trellis=1 / 8x8dct=1 / cqm=0 / deadzone=21,11 / fast_pskip=1 / chroma_qp_offset=-2 / threads=1 / lookahead_threads=1 / sliced_threads=0 / nr=0 / decimate=1 / interlaced=0 / bluray_compat=0 / constrained_intra=0 / bframes=3 / b_pyramid=2 / b_adapt=1 / b_bias=0 / direct=1 / weightb=1 / open_gop=0 / weightp=1 / keyint=250 / keyint_min=25 / scenecut=0 / intra_refresh=0 / rc_lookahead=30 / rc=cbr / mbtree=1 / bitrate=3200 / ratetol=1.0 / qcomp=0.60 / qpmin=0 / qpmax=69 / qpstep=4 / vbv_maxrate=3200 / vbv_bufsize=1600 / nal_hrd=cbr / filler=1 / ip_ratio=1.40 / aq=1:1.00
Default : Да
Forced : Нет

Аудио
Идентификатор : 2
Формат : AC-3
Формат/Информация : Audio Coding 3
Идентификатор кодека : A_AC3
Продолжительность : 46 м. 21 с.
Вид битрейта : Постоянный
Битрейт : 192 Кбит/сек
Каналы : 2 канала
Расположение каналов : Front: L R
Частота : 48,0 КГц
Частота кадров : 31,250 кадров/сек (1536 SPF)
Битовая глубина : 16 бит
Метод сжатия : С потерями
Задержка видео : -61 мс.
Размер потока : 63,7 Мбайт (6%)
ServiceKind/String : Complete Main
Default : Да
Forced : Нет








   Похожие торренты   Торрент   Размер 
В этой теме нет новых непрочитанных сообщений. Практика (2 сезон 1-6 серии из 40) (Андрей Силкин) [2018, драма, WEB-DL 720p]

13 | 4

6.84 ГБ

В этой теме нет новых непрочитанных сообщений. Практика (2 сезон 1-8 серии из 40) (Андрей Силкин) [2018, драма, WEB-DLRip-AVC]

30 | 7

4.97 ГБ

В этой теме нет новых непрочитанных сообщений. Практика (2 сезон 1-2 серии из 40) (Андрей Силкин) [2018, драма, HDTVRip]

4 | 0

1.35 ГБ

В этой теме нет новых непрочитанных сообщений. Практика (2 сезон 1-2 серии из 40) (Андрей Силкин) [2018, драма, WEB-DLRip]

9 | 0

1.18 ГБ

В этой теме нет новых непрочитанных сообщений. Практика (2 сезон 1-6 серии из 40) (Андрей Силкин) [2018, драма, WEB-DLRip]

0 | 0

3.53 ГБ

В этой теме нет новых непрочитанных сообщений. Практика (2 сезон 1-4 серии из 40) (Андрей Силкин) [2018, драма, WEB-DLRip-AVC]

2 | 0

2.42 ГБ

В этой теме нет новых непрочитанных сообщений. Практика (2 сезон 1-4 серии из 40) (Андрей Силкин) [2018, драма, HDTVRip]

19 | 4

2.68 ГБ




Вы не можете начинать темы
Вы не можете отвечать на сообщения
Вы не можете редактировать свои сообщения
Вы не можете удалять свои сообщения
Вы не можете добавлять вложения

Перейти:  
 Вход
ppkBB3cker v.2 © 2008-2014 @ PPK
[ Time : 0.052s | 18 Queries | GZIP : Off ]

cron