img image001 image001 image001 image001 image001 image001 image001 image001 image001 image001 image001 image001 image001 image001 image001 image001

Planets Sun Sun Sun
Статистика раздачи
Автор: Снежана | Размер: 13.9 ГБ | Добавлен: 22 май 2018
Раздают: 6    Качают: 4
Скачать торрент
Скачать торрент
Описание торрента

СообщениеДобавлено: 22 май 2018 

Золото Глории ( 8 серии из 8 )

Перевод: Не требуется
Субтитры: отсутствуют
Формат: WEB-DL 720p, MKV, H.264, AC3
Страна: Россия, Куба
Режиссер: Алексей Колмогоров
Жанр: приключения, фэнтэзи
Всего серий: 8
Продолжительность: 8 x ~00:51:49
Год выпуска: 2012

В ролях: Евгений Стычкин, Павел Майков, Михаил Евланов, Сергей Газаров, Александр Робак, Максим Лагашкин, Екатерина Стулова

Описание: Трое друзей прилетают из Москвы в Гавану. На первый взгляд — обычные туристы. На самом же деле они ищут золото с испанского корабля «Глория», затонувшего в 1673 году. Наши герои — опытные кладоискатели, профессионалы. Из Гаваны они выезжают к Карибскому морю, в бухту, где должен быть клад. Но по дороге неким мистическим образом перемещаются в прошлое, и ровно в тот год, когда золото было спрятано.
Кладоискатели попадают в плен к пиратам и становятся непосредственными участниками событий той эпохи. Но теперь задачей друзей является не только поиск золота, но и поиск дороги обратно — в свое время. Кто и зачем отправил их в прошлое?




Видео: 1280x720p (16:9), 25,000 fps, MPEG4 AVC (x264), ~4500 Kbps avg, 0.195 bit/pixe
Аудио: 48 kHz, AC3 Dolby Digital, 2/0 (L,R) ch, ~192 kbps


Общее
Уникальный идентификатор : 173880654124898319302885907731503776993 (0x82D032236A0A87B1A796A591DB6604E1)
Полное имя : F:\TREKER\ТЕМР\gold_of_gloria_[tfile.me]\gold_of_gloria_[tfile.me]_e01.mkv
Формат : Matroska
Версия формата : Version 2
Размер файла : 1,71 Гбайт
Продолжительность : 51 м. 49 с.
Общий поток : 4729 Кбит/сек
Название фильма : gold_of_gloria_[tfile.me]
Дата кодирования : UTC 2018-05-21 15:40:50
Программа кодирования : mkvmerge v4.0.0 ('The Stars were mine') сборка от Jun 6 2010 16:18:42
Библиотека кодирования : libebml v1.0.0 + libmatroska v1.0.0
Обложка : Yes
Attachments : cover.jpg

Видео
Идентификатор : 1
Формат : AVC
Формат/Информация : Advanced Video Codec
Профиль формата :
Параметр CABAC формата : Да
Параметр ReFrames формата : 6 кадров
Идентификатор кодека : V_MPEG4/ISO/AVC
Продолжительность : 51 м. 49 с.
Битрейт : 4500 Кбит/сек
Ширина : 1280 пикселей
Высота : 720 пикселей
Соотношение сторон : 16:9
Режим частоты кадров : Постоянный
Частота кадров : 25,000 кадров/сек
Цветовое пространство : YUV
Субдискретизация насыщенности : 4:2:0
Битовая глубина : 8 бит
Тип развёртки : Прогрессивная
Бит/(Пиксели*Кадры) : 0.195
Размер потока : 1,61 Гбайт (94%)
Библиотека кодирования : x264 core 146 r2538 121396c
Настройки программы : cabac=1 / ref=6 / deblock=1:-1:-1 / analyse=0x3:0x133 / me=umh / subme=10 / psy=1 / psy_rd=1.00:0.15 / mixed_ref=1 / me_range=24 / chroma_me=1 / trellis=2 / 8x8dct=1 / cqm=0 / deadzone=21,11 / fast_pskip=0 / chroma_qp_offset=-3 / threads=12 / lookahead_threads=1 / sliced_threads=0 / nr=0 / decimate=1 / interlaced=0 / bluray_compat=0 / constrained_intra=0 / bframes=3 / b_pyramid=2 / b_adapt=2 / b_bias=0 / direct=1 / weightb=1 / open_gop=0 / weightp=2 / keyint=250 / keyint_min=25 / scenecut=40 / intra_refresh=0 / rc_lookahead=50 / rc=abr / mbtree=1 / bitrate=4500 / ratetol=1.0 / qcomp=0.69 / qpmin=0 / qpmax=69 / qpstep=4 / ip_ratio=1.40 / aq=1:1.00
Default : Нет
Forced : Нет

Аудио
Идентификатор : 2
Формат : AC-3
Формат/Информация : Audio Coding 3
Расширение режима : CM (complete main)
Параметр Endianness формата : Big
Идентификатор кодека : A_AC3
Продолжительность : 51 м. 49 с.
Вид битрейта : Постоянный
Битрейт : 192 Кбит/сек
Каналы : 2 канала
Расположение каналов : Front: L R
Частота : 48,0 КГц
Частота кадров : 31,250 кадров/сек (1536 spf)
Битовая глубина : 16 бит
Метод сжатия : С потерями
Размер потока : 71,2 Мбайт (4%)
Default : Нет
Forced : Нет









Релиз от:

Релиз предоставлен сайтом tfile.me!!



   Похожие торренты   Торрент   Размер 
В этой теме нет новых непрочитанных сообщений. Золото Глории [01-08 из 08] (2012) WEB-DLRip от Generalfilm | КПК

18 | 5

1.86 ГБ

В этой теме нет новых непрочитанных сообщений. Золото Глории [01-08 из 08] (2012) DVDRip от Generalfilm | КПК | Лицензия

441 | 32

1.41 ГБ

В этой теме нет новых непрочитанных сообщений. Золото Глории [01-08 из 08] (2013) DVDRip

1787 | 315

5.11 ГБ

В этой теме нет новых непрочитанных сообщений. Золото Глории [01-08 из 08] (2013) DVDRip-AVC от aivik_kot

193 | 130

9.36 ГБ

В этой теме нет новых непрочитанных сообщений. Золото Глории [01-08 из 08] (2013) DVDRip от Generalfilm | КПК

39 | 13

1.65 ГБ

В этой теме нет новых непрочитанных сообщений. Пять минут тишины (2 сезон: 1-12 серии из 12) Возвращение (Алексей Праздников) [2018, детектив, приключения, HDTVRip 720p]

177 | 77

17.21 ГБ

В этой теме нет новых непрочитанных сообщений. Пять минут тишины (1-10 серии из 10) (Алексей Праздников) [2016, приключения, детектив, WEB-DL 1080p]

21 | 2

18.01 ГБ




Вы не можете начинать темы
Вы не можете отвечать на сообщения
Вы не можете редактировать свои сообщения
Вы не можете удалять свои сообщения
Вы не можете добавлять вложения

Перейти:  
 Вход
ppkBB3cker v.2 © 2008-2014 @ PPK
[ Time : 0.056s | 17 Queries | GZIP : Off ]

cron