img image001 image001 image001 image001 image001 image001 image001 image001 image001 image001 image001 image001 image001 image001 image001 image001

Planets Sun Sun Sun
Статистика раздачи
Автор: Снежана | Размер: 6.6 ГБ | Добавлен: 25 май 2018
Раздают: 41    Качают: 0
Скачать торрент
Скачать торрент
Описание торрента

СообщениеДобавлено: 25 май 2018 

Остаться в живых (1-6 серии из 6)

Перевод: Не требуется, cубтитры: отсутствуют
Формат: WEB-DL, MKV, AVC, AC3
Страна: Россия
Режиссер: Андрей Малюков
Жанр: военный, драма, мелодрама
Всего серий: 6
Продолжительность: 6 х ~ 00:50:00
Год выпуска: 2018
В ролях: Егор Корешков, Михаил Пореченков, Александр Горбатов (II), Вера Панфилова, Дирк Мартенс, Олег Мазуров, Юрий Маслак, Евгения Дмитриева, Борис Каморзин, Денис Константинов, Сослан Фидаров, Юрий Уткин, Дмитрий Арбенин, Илья Сологуб, Юрий Титов, Константин Адаев
Описание:
Осень 1941 года. Немецкие войска продвигаются к Москве. Старшина Петр Стрельченко (Александр Горбатов) вместе с военным инженером Борисом Жихаревым (Егор Корешков) во время боя с немцами собираются взорвать стратегически важную для врага плотину. Но попытка срывается. Спасая Петру жизнь, Борис в последний момент не решается нажать на рычаг и, в итоге, оказывается в плену...



Видео: 1920x1080 (16:9), 25.000 fps, AVC High@L4, ~3121 kbps avg, ~0.060 bit/pixel
Аудио: 48 kHz, АС3, 2 ch, (Front: L R) ~192.00 kbps avg

Общее
Уникальный идентификатор : 227117951461914338352370274707985729007 (0xAADD538C83D71C15DA012F35098D05EF)
Полное имя : D:\Остаться в живых (2018).by.Алехаndr\Серия 1.by.Алехаndr.mkv
Формат : Matroska
Версия формата : Version 4 / Version 2
Размер файла : 1,24 Гбайт
Продолжительность : 52 м. 42 с.
Общий поток : 3380 Кбит/сек
Программа кодирования : Lavf57.71.100
Библиотека кодирования : Lavf57.71.100
ErrorDetectionType : Per level 1

Видео
Идентификатор : 1
Формат : AVC
Формат/Информация : Advanced Video Codec
Профиль формата : High@L4
Настройки формата : CABAC / 2 Ref Frames
Параметр CABAC формата : Да
Параметр RefFrames формата : 2 кадра
Идентификатор кодека : V_MPEG4/ISO/AVC
Продолжительность : 52 м. 42 с.
Битрейт : 3121 Кбит/сек
Ширина : 1920 пикселей
Высота : 1080 пикселей
Соотношение сторон : 16:9
Режим частоты кадров : Постоянный
Частота кадров : 25,000 кадров/сек
Цветовое пространство : YUV
Субдискретизация насыщенности : 4:2:0
Битовая глубина : 8 бит
Тип развёртки : Прогрессивная
Бит/(Пиксели*Кадры) : 0.060
Размер потока : 1,15 Гбайт (92%)
Default : Да
Forced : Нет
Цветовой диапазон : Limited
Основные цвета : BT.709
Характеристики трансфера : BT.709
Коэффициенты матрицы : BT.709

Аудио
Идентификатор : 2
Формат : AC-3
Формат/Информация : Audio Coding 3
Идентификатор кодека : A_AC3
Продолжительность : 52 м. 42 с.
Вид битрейта : Постоянный
Битрейт : 192 Кбит/сек
Каналы : 2 канала
Расположение каналов : Front: L R
Частота : 48,0 КГц
Частота кадров : 31,250 кадров/сек (1536 SPF)
Битовая глубина : 16 бит
Метод сжатия : С потерями
Размер потока : 72,4 Мбайт (6%)
ServiceKind/String : Complete Main
Default : Да
Forced : Нет





   Похожие торренты   Торрент   Размер 
В этой теме нет новых непрочитанных сообщений. Остаться в живых (1-6 серии из 6) (Андрей Малюков) [2018, военный, драма, мелодрама, SATRip]

231 | 11

4.1 ГБ

В этой теме нет новых непрочитанных сообщений. Остаться в живых (1-6 серии из 6) (Андрей Малюков) [2018, военный, драма, мелодрама, HDTVRip-AVC]

252 | 37

4.5 ГБ

В этой теме нет новых непрочитанных сообщений. Остаться в живых (1-6 серии из 6) (Андрей Малюков) [2018, военный, драма, мелодрама, WEB-DLRip]

160 | 14

3.8 ГБ

В этой теме нет новых непрочитанных сообщений. Остаться в живых (1-6 серии из 6) (Андрей Малюков) [2018, военный, драма, мелодрама, HDTVRip 720p]

51 | 0

8.59 ГБ

В этой теме нет новых непрочитанных сообщений. Остаться в живых (1-6 серии из 6) (Андрей Малюков) [2018, военный, драма, мелодрама, HDTVRip 720p]

30 | 0

8.58 ГБ

В этой теме нет новых непрочитанных сообщений. Остаться в живых (1-6 серии из 6 ) (Андрей Малюков) [2018, военный, драма, SATRip-AVC]

42 | 0

3.67 ГБ

В этой теме нет новых непрочитанных сообщений. Диверсант / Диверсант 2: Конец войны (1-2 сезон 1-14 серии из 14) (Андрей Малюков, Игорь Зайцев) [2004 - 2007, боевик, военный, детектив, драма, история, приключения, HDTVRip]

29 | 7

9.57 ГБ




Вы не можете начинать темы
Вы не можете отвечать на сообщения
Вы не можете редактировать свои сообщения
Вы не можете удалять свои сообщения
Вы не можете добавлять вложения

Перейти:  
 Вход
ppkBB3cker v.2 © 2008-2014 @ PPK
[ Time : 0.046s | 18 Queries | GZIP : Off ]

cron