img image001 image001 image001 image001 image001 image001 image001 image001 image001 image001 image001 image001 image001 image001 image001 image001

Planets Sun Sun Sun
Статистика раздачи
Автор: Снежана | Размер: 26.88 ГБ | Добавлен: 25 май 2018
Раздают: 0    Качают: 4
Скачать торрент
Скачать торрент
Описание торрента

СообщениеДобавлено: 25 май 2018 

Академия (1-46 серии из 60)

Перевод: Не требуется, cубтитры: отсутствуют
Формат: WEB-DLRip-AVC, MKV, H.264, AC3
Страна: Россия
Режиссер: Вячеслав Лавров, Анарио Мамедов, Александр Созонов, Габриэла Черняк
Жанр: детектив
Всего серий: 60
Продолжительность: 46 x ~ 00:45:00
Год выпуска: 2016

В ролях: Максим Битюков, Галина Сумина, Александр Константинов, Елизавета Лотова, Игорь Юртаев, Александр Яцко, Иван Верховых, Антонина Дивина, Владимир Юматов, Эрик Яралов, Юлия Подозёрова, Алена Горенко, Максим Сапрыкин, Елена Коллегова, Маргарита Шилова, Татьяна Ермилова (II), Олег Горбачев, Сергей Климков, Игорь Тарасевич, Илья Мирошников, Сергей Фатьянов, Екатерина Василенко, Ян Воробьёв, Игорь Серебряный, Жорж Девдариани, Денис Сердюков, Елена Медведева, Кристина Поли, Елизавета Хельмбрехт, Татьяна Жевнова, Михаил Новицкий, Валентина Шанаева, Андрей Копытов, Роман Катышкин, Вячеслав Буцков, Алиса Дмитриева, Дмитрий Родонов, Игорь Кулачко, Николай Малинкин, Наталья Муравьевская, Роман Синицын, Елена Доронина (II), Михаил Пярн, Виктор Мютников, Александр Мотасов, Александр Негреба, Владимир Кебин, Игорь Бондаренко (III), Юрий Кормушин, Антон Завражнов, Антон Даниленко, Антон Афанасьев, Эвелина Астафурова, Александр Сибирцев (II), Антон Пулит, Сергей Гришаков, Евгения Гирзекорн, Анна Марченко, Андрей Новиков (IV), Дмитрий Файнштейн, Эдуард Айткулов, Дмитрий Попов (II), Константин Хрустачев, Марина Суворова, Алина Хруник, Любовь Томилова, Денис Варенов, Дарья Сивова, Владимир Демидов, Ольга Малахова

Описание: Сотрудница Следственного комитета РФ Анастасия Зорина в процессе расследования резонансного дела обращается к стороннему эксперту – преподавателю патанатомии, младшему научному сотруднику лаборатории регенерации тканей Московского Университета Кириллу Лемке. После успешного окончания дела СК РФ принимает решение создать специальную следственно-экспертную группу «Академия», в которую войдут научные сотрудники различных факультетов МГУ – физики, химии, биологии… Куратором отдела назначена Настя Зорина. Молодому следователю будет нелегко держать в руках Лемке и компанию ученых, для которых поиск истины и результат всегда важнее буквы закона. Но игра стоит свеч – многие странные и загадочные преступления будут раскрыты именно благодаря свободному и нестандартному мышлению членов команды «Академия».
«Здесь тайное становится явным»

Рейтинг и доп. информация:


Видео: 1024x576 (16:9), 25 fps, AVC MPEG-4 (x264), ~ 1600 kbps , 0.109 bit/pixel
Аудио: 44 kHz, АС3, 2/0 (L,R), ~192.00 kbps avg
Внимание! Раздача ведётся путём добавления новых серий. При каждом добавлении создаётся новый торрент.
Чтобы начать докачку новой серии, пользователям необходимо сделать следующее:
1. Остановить скачивание.
2. Удалить старый торрент у себя из клиента (старые серии удалять не надо).
3. Скачать новый торрент и запустить его у себя в клиенте вместо старого, при этом указать клиенту путь в старую папку куда и должно происходить скачивание новых серий. Ваш клиент при этом должен произвести хеширование (проверку) старой папки и будет докачивать только те серии, которых у вас ещё нет. Старые серии при этом не удаляются, а продолжают раздаваться! Eсли вы уже удалили старые серии, то предотвратить повторную закачку старых серий можно, отжав галочку в соответствующих местах при запуске нового торрента.


Общее
Уникальный идентификатор : 175707153573071519011759482683935430315 (0x842FF7838B1A345485AD9721DBB416AB)
Полное имя : C:\Akademija.2016.WEB-DLRip.(AVC).\01.Академия.WEB-DLRip.AVC.mkv
Формат : Matroska
Версия формата : Version 2
Размер файла : 635 Мбайт
Продолжительность : 49 м. 33 с.
Общий поток : 1792 Кбит/сек
Дата кодирования : UTC 2016-02-09 01:25:54
Программа кодирования : mkvmerge v6.1.0 ('Old Devil') built on Mar 4 2013 09:10:42
Библиотека кодирования : libebml v1.3.0 + libmatroska v1.4.0

Видео
Идентификатор : 1
Формат : AVC
Формат/Информация : Advanced Video Codec
Профиль формата :
Настройки формата : CABAC / 9 Ref Frames
Параметр CABAC формата : Да
Параметр RefFrames формата : 9 кадров
Идентификатор кодека : V_MPEG4/ISO/AVC
Продолжительность : 49 м. 33 с.
Битрейт : 1600 Кбит/сек
Ширина : 1024 пикселя
Высота : 576 пикселей
Соотношение сторон : 16:9
Режим частоты кадров : Постоянный
Частота кадров : 25,000 кадров/сек
Цветовое пространство : YUV
Субдискретизация насыщенности : 4:2:0
Битовая глубина : 8 бит
Тип развёртки : Прогрессивная
Бит/(Пиксели*Кадры) : 0.109
Размер потока : 554 Мбайт (87%)
Библиотека кодирования : x264 core 130 r2273 b3065e6
Настройки программы : cabac=1 / ref=9 / deblock=1:-2:-1 / analyse=0x3:0x133 / me=umh / subme=9 / psy=1 / psy_rd=1.00:0.15 / mixed_ref=1 / me_range=32 / chroma_me=1 / trellis=2 / 8x8dct=1 / cqm=0 / deadzone=21,11 / fast_pskip=0 / chroma_qp_offset=-3 / threads=6 / lookahead_threads=1 / sliced_threads=0 / nr=0 / decimate=1 / interlaced=fake / bluray_compat=0 / constrained_intra=0 / bframes=9 / b_pyramid=2 / b_adapt=2 / b_bias=0 / direct=1 / weightb=1 / open_gop=0 / weightp=2 / keyint=250 / keyint_min=25 / scenecut=40 / intra_refresh=0 / rc=2pass / mbtree=0 / bitrate=1600 / ratetol=1.0 / qcomp=0.60 / qpmin=0 / qpmax=69 / qpstep=4 / cplxblur=20.0 / qblur=0.5 / ip_ratio=1.40 / pb_ratio=1.30 / aq=2:1.00
Default : Да
Forced : Нет
Цветовой диапазон : Limited
Основные цвета : BT.709
Характеристики трансфера : BT.709
Коэффициенты матрицы : BT.709

Аудио
Идентификатор : 2
Формат : AC-3
Формат/Информация : Audio Coding 3
Идентификатор кодека : A_AC3
Продолжительность : 49 м. 33 с.
Вид битрейта : Постоянный
Битрейт : 192 Кбит/сек
Каналы : 2 канала
Расположение каналов : Front: L R
Частота : 44,1 КГц
Частота кадров : 28,711 кадров/сек (1536 SPF)
Битовая глубина : 16 бит
Метод сжатия : С потерями
Размер потока : 68,1 Мбайт (11%)
ServiceKind/String : Complete Main
Default : Да
Forced : Нет









   Похожие торренты   Торрент   Размер 
В этой теме нет новых непрочитанных сообщений. Академия (1-31 серии из 60) (Вячеслав Лавров, Анарио Мамедов, Александр Созонов, Габриэла Черняк) [2016, детектив, WEB-DLRip-AVC]

11 | 10

18.25 ГБ

В этой теме нет новых непрочитанных сообщений. Академия (1-39 серии из 60) (Вячеслав Лавров, Анарио Мамедов, Александр Созонов, Габриэла Черняк) [2016, детектив, WEB-DLRip-AVC]

2 | 0

22.85 ГБ

В этой теме нет новых непрочитанных сообщений. Академия (1-56 серии из 60) (Вячеслав Лавров, Анарио Мамедов, Александр Созонов, Габриэла Черняк) [2016, детектив, WEB-DLRip-AVC]

0 | 2

32.66 ГБ

В этой теме нет новых непрочитанных сообщений. Академия (1-60 серии из 60) (Вячеслав Лавров, Анарио Мамедов, Александр Созонов, Габриэла Черняк) [2016, детектив, WEB-DLRip-AVC]

11 | 2

34.99 ГБ

В этой теме нет новых непрочитанных сообщений. Академия (1-58 серии из 60) (Вячеслав Лавров, Анарио Мамедов, Александр Созонов, Габриэла Черняк) [2016, детектив, WEB-DLRip-AVC]

5 | 2

33.83 ГБ

В этой теме нет новых непрочитанных сообщений. Академия (1-54 серии из 60) (Вячеслав Лавров, Анарио Мамедов, Александр Созонов, Габриэла Черняк) [2016, детектив, WEB-DLRip-AVC]

0 | 2

31.51 ГБ

В этой теме нет новых непрочитанных сообщений. Академия (1-38 серии из 60) (Вячеслав Лавров, Анарио Мамедов, Александр Созонов, Габриэла Черняк) [2016, детектив, WEB-DLRip-AVC]

1 | 6

22.26 ГБ




Вы не можете начинать темы
Вы не можете отвечать на сообщения
Вы не можете редактировать свои сообщения
Вы не можете удалять свои сообщения
Вы не можете добавлять вложения

Перейти:  
cron
 Вход
ppkBB3cker v.2 © 2008-2014 @ PPK
[ Time : 0.050s | 18 Queries | GZIP : Off ]

cron