img image001 image001 image001 image001 image001 image001 image001 image001 image001 image001 image001 image001 image001 image001 image001 image001

Planets Sun Sun Sun
Статистика раздачи
Автор: Снежана | Размер: 16.03 ГБ | Добавлен: 25 май 2018
Раздают: 14    Качают: 4
Скачать торрент
Скачать торрент
Описание торрента

СообщениеДобавлено: 25 май 2018 

Сиделка (1-16 серии из 16)

Перевод: Не требуется
Субтитры: отсутствуют
Формат: WEB-DL 720p, MKV, H.264, AC3
Страна: Россия, Украина
Режиссер: Станислав Назиров
Жанр: детектив, мелодрама, триллер
Всего серий: 16
Продолжительность: 16x ~ 00:53:00
Год выпуска: 2018

В ролях: Александра Власова,Илья Акинтьев,Юрий Беляев,Сергей Жигунов,Максим Дрозд,Анна Попова,Регина Мянник,Александр Давыдов,Любава Грешнова,Артемий Падалка...

Описание: Катю Кирсанову неожиданно увольняют из школы под надуманным предлогом и почти сразу она получает невероятное предложение! За большие деньги ей предлагают стать сиделкой у умирающего и находящегося в коме отца богатого семейства — бизнесмена Анатолия Шубина.
Девушка поселяется в роскошном особняке Шубина. Члены его семьи — жена Ольга, властная женщина, его старший сын Владимир, болезненно добивающийся права считаться достойным приемником, средний сын Игорь, типичный прожигатель жизни и младшая дочь Вика, блогерша и бунтарка — не проявляют никакого участия к трагедии Шубина. А лучший друг и партнер Шубина — Клишин, который кажется во всем помогает и поддерживает семью, возможно не тот, за кого себя выдает…
Внезапно выясняется, что Шубин — не в коме и скрывает это от родных. Единственное его доверенное лицо — это Катя, которая невольно превращается в участника семейной драмы…




Видео: 1280x720p (16:9), 25,000 fps, MPEG4 AVC (x264), High@L4 ~2513 Kbps avg, 0.109 bit/pixel
Аудио: 48 kHz, AC3 Dolby Digital, 2/0 (L,R) ch, ~192 kbps


Общее
Уникальный идентификатор : 177815388003039438740475808946719681280 (0x85C5FF7F13AC738DB73EF86B53FDEB00)
Полное имя : F:\TREKER\ТЕМР\sidelka_[tfile.me]\sidelka_[tfile.me]_E01.mkv
Формат : Matroska
Версия формата : Version 2
Размер файла : 1,02 Гбайт
Продолжительность : 53 м. 0 с.
Общий поток : 2760 Кбит/сек
Название фильма : sidelka_[tfile.me]
Дата кодирования : UTC 2018-05-15 07:06:53
Программа кодирования : mkvmerge v4.0.0 ('The Stars were mine') сборка от Jun 6 2010 16:18:42
Библиотека кодирования : libebml v1.0.0 + libmatroska v1.0.0
Обложка : Yes
Attachments : cover.jpg

Видео
Идентификатор : 1
Формат : AVC
Формат/Информация : Advanced Video Codec
Профиль формата : High@L4
Параметр CABAC формата : Да
Параметр ReFrames формата : 4 кадра
Идентификатор кодека : V_MPEG4/ISO/AVC
Продолжительность : 53 м. 0 с.
Битрейт : 2513 Кбит/сек
Ширина : 1280 пикселей
Высота : 720 пикселей
Соотношение сторон : 16:9
Режим частоты кадров : Постоянный
Частота кадров : 25,000 кадров/сек
Цветовое пространство : YUV
Субдискретизация насыщенности : 4:2:0
Битовая глубина : 8 бит
Тип развёртки : Прогрессивная
Бит/(Пиксели*Кадры) : 0.109
Размер потока : 953 Мбайт (91%)
Default : Нет
Forced : Нет

Аудио
Идентификатор : 2
Формат : AC-3
Формат/Информация : Audio Coding 3
Расширение режима : CM (complete main)
Параметр Endianness формата : Big
Идентификатор кодека : A_AC3
Продолжительность : 53 м. 0 с.
Вид битрейта : Постоянный
Битрейт : 192 Кбит/сек
Каналы : 2 канала
Расположение каналов : Front: L R
Частота : 48,0 КГц
Частота кадров : 31,250 кадров/сек (1536 spf)
Битовая глубина : 16 бит
Метод сжатия : С потерями
Размер потока : 72,8 Мбайт (7%)
Default : Нет
Forced : Нет









Релиз от:

Релиз предоставлен сайтом tfile.me!!



   Похожие торренты   Торрент   Размер 
В этой теме нет новых непрочитанных сообщений. Сиделка (1-10 серии из 16) (Станислав Назиров) [2018, детектив, мелодрама, триллер, WEB-DL 720p]

0 | 0

10.02 ГБ

В этой теме нет новых непрочитанных сообщений. Сиделка (1-4 серии из 16) (Станислав Назиров) [2018, детектив, мелодрама, триллер, WEB-DL 720p]

25 | 0

4.06 ГБ

В этой теме нет новых непрочитанных сообщений. Сиделка (1-8 серии из 16) (Станислав Назиров) [2018, детектив, мелодрама, триллер, WEB-DL 720p]

4 | 0

8.02 ГБ

В этой теме нет новых непрочитанных сообщений. Сиделка (1-6 серии из 16) (Станислав Назиров) [2018, детектив, мелодрама, триллер, WEB-DL 720p]

2 | 0

6.04 ГБ

В этой теме нет новых непрочитанных сообщений. Сиделка (1-2 серии из 16) (Станислав Назиров) [2018, детектив, мелодрама, триллер, WEB-DL 720p]

0 | 4

2.04 ГБ

В этой теме нет новых непрочитанных сообщений. Сиделка (1-10 серии из 16) (Станислав Назиров) [2018, детектив, мелодрама, триллер, WEB-DLRip]

31 | 5

6.35 ГБ

В этой теме нет новых непрочитанных сообщений. Сиделка (1-8 серии из 16) (Станислав Назиров) [2018, детектив, мелодрама, триллер, WEB-DLRip]

0 | 0

5.08 ГБ




Вы не можете начинать темы
Вы не можете отвечать на сообщения
Вы не можете редактировать свои сообщения
Вы не можете удалять свои сообщения
Вы не можете добавлять вложения

Перейти:  
 Вход
ppkBB3cker v.2 © 2008-2014 @ PPK
[ Time : 0.044s | 19 Queries | GZIP : Off ]

cron