img image001 image001 image001 image001 image001 image001 image001 image001 image001 image001 image001 image001 image001 image001 image001 image001

Planets Sun Sun Sun
Статистика раздачи
Автор: Снежана | Размер: 3.96 ГБ | Добавлен: 25 май 2018
Раздают: 2    Качают: 2
Скачать торрент
Скачать торрент
Описание торрента

СообщениеДобавлено: 25 май 2018 

Мухтар. Новый след (1 (11) сезон 101-106 серии)

Перевод: Не требуется, cубтитры: отсутствуют
Формат: WEBRip-AVC, MKV, XviD, AC3
Страна: Россия
Режиссер: Олег Шеремет-Доска, Наталия Микрюкова, Гузэль Киреева
Жанр: детектив, криминал, приключения, фильм о животных
Продолжительность: 6 х ~ 00:45:00
Год выпуска: 2016-2018

В ролях: Владимир Фекленко, Светлана Брюханова, Алексей Моисеев, Александр Воеводин, Надежда Анципович, Оксана Сташенко, Евгений Токарев, Виктор Васильев (II), Сергей Громов, Артём Осипов, Эрик Абрамович, Ольга Моисеева (II), Никита Моисеев, Сергей Широчин, Николай Рябычин, Виктория Маковчик, Олег Шеремет-Доска, Дмитрий Егоров (III), Анжелика Метте, Сергей Быхов, Сергей Толстиков, Валентин Соловьёв, Евгения Короткевич, Валерий Агаян, Анна Григорчук, Юрий Шеланков, Игорь Шугалеев, Александр Брухацкий, Алексей Яровенко, Анна Кисель, Олег Чеченев, Елена Турова, Людмила Серёгина, Геннадий Готовчиц, Елизавета Фалей, Светлана Акимова, Ольга Дятловская, Василий Бойдак, Анна Семеняко, Анатолий Гурьев, Александр Пашкевич, Максим Пониматченко, Светлана Клименко, Павел Навроцкий, Юрий Мокрушин, Андрей Добровольский (II), Игорь Карпиевич, Сергей Власов (IV), Виктория Ломоносова, Антон Жуков, Дмитрий Малащицкий, Татьяна Ружавская, Василий Ницко, Артем Курень, Эмилия Ларионова, Дмитрий Давидович, Юлия Верховская, Зоя Антонова, Елена Шабад, Александра Кривошей, Алексей Соров, Василий Гречухин, Михаил Есьман, Павел Яскевич, Евгений Пименов, Татьяна Давыденко, Алексей Сенчило, Сергей Чекерес, Игорь Петров (IV), Андрей Ковальчук

Описание: Продолжение полюбившегося зрителями сериала, впервые показанного на НТВ в 2004 году. Это череда историй о приключениях сплоченной команды сотрудников милиции и служебного пса Мухтара. Оперативники Максим Жаров (в новом сезоне его роль исполняет Павел Вишняков) и Алексей Самойлов (Алексей Моисеев), следователь Василиса Михайлова (Наталья Юнникова) и их четвероногий друг снова раскрывают самые разные преступления. Чаще всего главную роль в расследованиях играет именно мохнатый страж порядка. Несмотря на то, что у Мухтара теперь новый хозяин, работа все та же – найти и обезвредить! Помимо того, что Мухтар – настоящий профессионал, он еще и верный помощник, настоящий друг, готовый всегда прийти на выручку. Он – душа команды. Именно благодаря его уникальным способностям – исключительному обонянию, «шестому чувству», моментальности реакций и преданности хозяину — команде детективов удается справляться с делами самой повышенной сложности.

Рейтинг и доп. информация:


Видео: 1024x576 (16:9), 25 fps, AVC MPEG-4 (x264), High@L4 ~ 2000 kbps , 0.136 bit/pixel
Аудио: 48 kHz, AC3, 2/0 (L,R) ch, ~192.00 kbps avg
Внимание! Раздача ведётся путём добавления новых серий. При каждом добавлении создаётся новый торрент.
Чтобы начать докачку новой серии, пользователям необходимо сделать следующее:
1. Остановить скачивание.
2. Удалить старый торрент у себя из клиента (старые серии удалять не надо).
3. Скачать новый торрент и запустить его у себя в клиенте вместо старого, при этом указать клиенту путь в старую папку куда и должно происходить скачивание новых серий. Ваш клиент при этом должен произвести хеширование (проверку) старой папки и будет докачивать только те серии, которых у вас ещё нет. Старые серии при этом не удаляются, а продолжают раздаваться! Eсли вы уже удалили старые серии, то предотвратить повторную закачку старых серий можно, отжав галочку в соответствующих местах при запуске нового торрента.


Общее
Уникальный идентификатор : 249535088581949638396229100980658432590 (0xBBBAB5BDCF831FB68A0D1744E846EA4E)
Полное имя : C:\Muchtar.novyj.sled.(2017).WEB-DLRip.(AVC).Files-x (101-200)\101.Muchtar.novyj.sled.(2017).WEB-DLRip.(AVC).by.Серый1779.Files-x.mkv
Формат : Matroska
Версия формата : Version 2
Размер файла : 660 Мбайт
Продолжительность : 42 м. 2 с.
Общий поток : 2193 Кбит/сек
Дата кодирования : UTC 2018-05-18 07:52:09
Программа кодирования : mkvmerge v7.8.0 ('River Man') 32bit built on Apr 3 2015 12:11:22
Библиотека кодирования : libebml v1.3.1 + libmatroska v1.4.2

Видео
Идентификатор : 1
Формат : AVC
Формат/Информация : Advanced Video Codec
Профиль формата :
Настройки формата : CABAC / 9 Ref Frames
Параметр CABAC формата : Да
Параметр RefFrames формата : 9 кадров
Идентификатор кодека : V_MPEG4/ISO/AVC
Продолжительность : 42 м. 2 с.
Битрейт : 2000 Кбит/сек
Ширина : 1024 пикселя
Высота : 576 пикселей
Соотношение сторон : 16:9
Режим частоты кадров : Постоянный
Частота кадров : 25,000 кадров/сек
Цветовое пространство : YUV
Субдискретизация насыщенности : 4:2:0
Битовая глубина : 8 бит
Тип развёртки : Прогрессивная
Бит/(Пиксели*Кадры) : 0.136
Размер потока : 589 Мбайт (89%)
Библиотека кодирования : x264 core 146 r2538 121396c
Настройки программы : cabac=1 / ref=9 / deblock=1:-2:-1 / analyse=0x3:0x133 / me=umh / subme=9 / psy=1 / psy_rd=1.00:0.15 / mixed_ref=1 / me_range=32 / chroma_me=1 / trellis=2 / 8x8dct=1 / cqm=0 / deadzone=21,11 / fast_pskip=0 / chroma_qp_offset=-3 / threads=18 / lookahead_threads=3 / sliced_threads=0 / nr=0 / decimate=1 / interlaced=0 / bluray_compat=0 / constrained_intra=0 / bframes=9 / b_pyramid=2 / b_adapt=2 / b_bias=0 / direct=1 / weightb=1 / open_gop=0 / weightp=2 / keyint=250 / keyint_min=25 / scenecut=40 / intra_refresh=0 / rc=2pass / mbtree=0 / bitrate=2000 / ratetol=1.0 / qcomp=0.60 / qpmin=0 / qpmax=69 / qpstep=4 / cplxblur=20.0 / qblur=0.5 / ip_ratio=1.40 / pb_ratio=1.30 / aq=2:1.00
Default : Да
Forced : Нет
Цветовой диапазон : Limited
Основные цвета : BT.709
Характеристики трансфера : BT.709
Коэффициенты матрицы : BT.709

Аудио
Идентификатор : 2
Формат : AC-3
Формат/Информация : Audio Coding 3
Идентификатор кодека : A_AC3
Продолжительность : 42 м. 2 с.
Вид битрейта : Постоянный
Битрейт : 192 Кбит/сек
Каналы : 2 канала
Расположение каналов : Front: L R
Частота : 48,0 КГц
Частота кадров : 31,250 кадров/сек (1536 SPF)
Битовая глубина : 16 бит
Метод сжатия : С потерями
Размер потока : 57,7 Мбайт (9%)
ServiceKind/String : Complete Main
Default : Да
Forced : Нет








   Похожие торренты   Торрент   Размер 
В этой теме нет новых непрочитанных сообщений. Мухтар. Новый след (1 (11) сезон 101-102 серии) (Олег Шеремет-Доска, Наталия Микрюкова, Гузэль Киреева) [2016-2018, детектив, криминал, приключения, фильм о животных, WEBRip-AVC]

2 | 0

1.32 ГБ

В этой теме нет новых непрочитанных сообщений. Мухтар. Новый след (1 (11) сезон 101-108 серии) (Олег Шеремет-Доска, Наталия Микрюкова, Гузэль Киреева) [2016-2018, детектив, криминал, приключения, фильм о животных, WEBRip-AVC]

7 | 0

5.25 ГБ

В этой теме нет новых непрочитанных сообщений. Мухтар. Новый след (1 (11) сезон 101-103 серии) (Олег Шеремет-Доска, Наталия Микрюкова, Гузэль Киреева) [2016-2018, детектив, криминал, приключения, фильм о животных, WEBRip-AVC]

0 | 0

1.97 ГБ

В этой теме нет новых непрочитанных сообщений. Мухтар. Новый след (1 (11) сезон 101- серии) (Олег Шеремет-Доска, Наталия Микрюкова, Гузэль Киреева) [2016-2018, детектив, криминал, приключения, фильм о животных, WEB-DLRip-AVC]

0 | 0

659.68 МБ

В этой теме нет новых непрочитанных сообщений. Мухтар. Новый след (1-100 серии из ???) (Олег Шеремет-Доска, Наталия Микрюкова, Гузэль Киреева) [2016-2018, детектив, криминал, приключения, фильм о животных, HDTVRip-AVC]

2 | 6

65.37 ГБ

В этой теме нет новых непрочитанных сообщений. Мухтар. Новый след (1-98 серии из ???) (Олег Шеремет-Доска, Наталия Микрюкова, Гузэль Киреева) [2016-2018, детектив, криминал, приключения, фильм о животных, HDTVRip-AVC]

1 | 6

64.04 ГБ

В этой теме нет новых непрочитанных сообщений. Мухтар. Новый след (1-96 серии из 96) (Олег Шеремет-Доска, Наталия Микрюкова, Гузэль Киреева) [2016-2018, детектив, криминал, приключения, фильм о животных, HDTVRip-AVC]

2 | 0

62.72 ГБ




Вы не можете начинать темы
Вы не можете отвечать на сообщения
Вы не можете редактировать свои сообщения
Вы не можете удалять свои сообщения
Вы не можете добавлять вложения

Перейти:  
 Вход
ppkBB3cker v.2 © 2008-2014 @ PPK
[ Time : 0.026s | 19 Queries | GZIP : Off ]

cron