img image001 image001 image001 image001 image001 image001 image001 image001 image001 image001 image001 image001 image001 image001 image001 image001

Planets Sun Sun Sun
Статистика раздачи
Автор: Снежана | Размер: 5.72 ГБ | Добавлен: 03 июн 2018
Раздают: 15    Качают: 8
Скачать торрент
Скачать торрент
Описание торрента

СообщениеДобавлено: 03 июн 2018 

Мельник (1-8 серии из 16)

Перевод: Не требуется, cубтитры: отсутствуют
Формат: WEBRip-AVC, MKV, H.264, AC3
Страна: Россия
Режиссер: Станислав Мареев
Жанр: боевик, детектив
Всего серий: 16
Продолжительность: 8 x ~ 00:45:00
Год выпуска: 2018

В ролях: Сергей Шнырёв, Сергей Паршин, Александр Константинов, Роман Грибков, Игорь Черневич, Дмитрий Воробьёв (II), Сергей Гарусов, Дмитрий Гирев, Сергей Кошонин, Дмитрий Сутырин, Алексей Фокин, Егор Бакулин, Игорь Ботвин, Андрей Зибров, Виталий Коваленко, Александр Саюталин, Владимир Бирюков, Леонид Тимцуник, Евгений Капитонов, Андрей Финягин

Описание: После тяжелого ранения бывший майор Аркадий Мельник (Сергей Шнырев) дослуживает «выслугу» до пенсии в конвойных войсках ФСИН в должности начальника выездного караула. В одну из смен он сопровождает партию особо опасных преступников в специальном вагоне поезда. Остановившись на одной из станций, Мельник по служебной необходимости отлучается. В это время в вагон проникает неизвестный и, нейтрализовав конвой, освобождает 16 осужденных. Руководство ФСИН просит Мельника возглавить группу по поимке сбежавших преступников, мотивируя это тем, что расследование не должно получить огласки в прессе, так как может вызвать панику среди населения. Каждая серия посвящена поимке одного из преступников и приближает зрителя к разгадке главной тайны: кто из руководства спецслужбы коррупционер и предатель.

Рейтинг и доп. информация:


Видео: 1024x576 (16:9), 25 fps, AVC MPEG-4 (x264), ~ 2000 kbps , 0.136 bit/pixel
Аудио: 48 kHz, AC3 Dolby Digital, 2/0 (L,R) ch, ~192.00 kbps avg
Внимание! Раздача ведётся путём добавления новых серий. При каждом добавлении создаётся новый торрент.
Чтобы начать докачку новой серии, пользователям необходимо сделать следующее:
1. Остановить скачивание.
2. Удалить старый торрент у себя из клиента (старые серии удалять не надо).
3. Скачать новый торрент и запустить его у себя в клиенте вместо старого, при этом указать клиенту путь в старую папку куда и должно происходить скачивание новых серий. Ваш клиент при этом должен произвести хеширование (проверку) старой папки и будет докачивать только те серии, которых у вас ещё нет. Старые серии при этом не удаляются, а продолжают раздаваться! Eсли вы уже удалили старые серии, то предотвратить повторную закачку старых серий можно, отжав галочку в соответствующих местах при запуске нового торрента.


Общее
Уникальный идентификатор : 219669375693619738551796073536109215791 (0xA542C868F1AD8B3DBDD58F2CF35D002F)
Полное имя : C:\Mellnik.(2018).WEB-DLRip.(AVC).Files-x\01.Melnik.(2018).WEB-DLRip.(AVC).by.Серый1779.Files-x.mkv
Формат : Matroska
Версия формата : Version 2
Размер файла : 730 Мбайт
Продолжительность : 46 м. 33 с.
Общий поток : 2193 Кбит/сек
Дата кодирования : UTC 2018-05-28 22:03:28
Программа кодирования : mkvmerge v7.8.0 ('River Man') 32bit built on Apr 3 2015 12:11:22
Библиотека кодирования : libebml v1.3.1 + libmatroska v1.4.2

Видео
Идентификатор : 1
Формат : AVC
Формат/Информация : Advanced Video Codec
Профиль формата :
Настройки формата : CABAC / 9 Ref Frames
Параметр CABAC формата : Да
Параметр RefFrames формата : 9 кадров
Идентификатор кодека : V_MPEG4/ISO/AVC
Продолжительность : 46 м. 33 с.
Битрейт : 2000 Кбит/сек
Ширина : 1024 пикселя
Высота : 576 пикселей
Соотношение сторон : 16:9
Режим частоты кадров : Постоянный
Частота кадров : 25,000 кадров/сек
Цветовое пространство : YUV
Субдискретизация насыщенности : 4:2:0
Битовая глубина : 8 бит
Тип развёртки : Прогрессивная
Бит/(Пиксели*Кадры) : 0.136
Размер потока : 652 Мбайт (89%)
Библиотека кодирования : x264 core 146 r2538 121396c
Настройки программы : cabac=1 / ref=9 / deblock=1:-2:-1 / analyse=0x3:0x133 / me=umh / subme=9 / psy=1 / psy_rd=1.00:0.15 / mixed_ref=1 / me_range=32 / chroma_me=1 / trellis=2 / 8x8dct=1 / cqm=0 / deadzone=21,11 / fast_pskip=0 / chroma_qp_offset=-3 / threads=18 / lookahead_threads=3 / sliced_threads=0 / nr=0 / decimate=1 / interlaced=0 / bluray_compat=0 / constrained_intra=0 / bframes=9 / b_pyramid=2 / b_adapt=2 / b_bias=0 / direct=1 / weightb=1 / open_gop=0 / weightp=2 / keyint=250 / keyint_min=25 / scenecut=40 / intra_refresh=0 / rc=2pass / mbtree=0 / bitrate=2000 / ratetol=1.0 / qcomp=0.60 / qpmin=0 / qpmax=69 / qpstep=4 / cplxblur=20.0 / qblur=0.5 / ip_ratio=1.40 / pb_ratio=1.30 / aq=2:1.00
Default : Да
Forced : Нет
Цветовой диапазон : Limited
Основные цвета : BT.709
Характеристики трансфера : BT.709
Коэффициенты матрицы : BT.709

Аудио
Идентификатор : 2
Формат : AC-3
Формат/Информация : Audio Coding 3
Идентификатор кодека : A_AC3
Продолжительность : 46 м. 33 с.
Вид битрейта : Постоянный
Битрейт : 192 Кбит/сек
Каналы : 2 канала
Расположение каналов : Front: L R
Частота : 48,0 КГц
Частота кадров : 31,250 кадров/сек (1536 SPF)
Битовая глубина : 16 бит
Метод сжатия : С потерями
Размер потока : 63,9 Мбайт (9%)
ServiceKind/String : Complete Main
Default : Да
Forced : Нет








   Похожие торренты   Торрент   Размер 
В этой теме нет новых непрочитанных сообщений. Мельник (1-4 серии из 16) (Станислав Мареев) [2018, боевик, детектив, WEBRip-AVC]

8 | 2

2.83 ГБ

В этой теме нет новых непрочитанных сообщений. Мельник (1-2 серии из 16) (Станислав Мареев) [2018, боевик, детектив, WEBRip]

8 | 0

1.18 ГБ

В этой теме нет новых непрочитанных сообщений. Мельник (1-4 серии из 16) (Станислав Мареев) [2018, боевик, детектив, WEBRip]

21 | 1

2.36 ГБ

В этой теме нет новых непрочитанных сообщений. Мельник (1-14 серии из 16) (Станислав Мареев) [2018, боевик, детектив, WEBRip-AVC]

1 | 0

10.12 ГБ

В этой теме нет новых непрочитанных сообщений. Мельник (1-10 серии из 16) (Станислав Мареев) [2018, боевик, детектив, WEBRip-AVC]

0 | 3

7.15 ГБ

В этой теме нет новых непрочитанных сообщений. Мельник (1-12 серии из 16) (Станислав Мареев) [2018, боевик, детектив, WEBRip-AVC]

0 | 0

8.66 ГБ

В этой теме нет новых непрочитанных сообщений. Мельник (1-16 серии из 16) (Станислав Мареев) [2018, боевик, детектив, WEBRip-AVC]

103 | 10

11.66 ГБ




Вы не можете начинать темы
Вы не можете отвечать на сообщения
Вы не можете редактировать свои сообщения
Вы не можете удалять свои сообщения
Вы не можете добавлять вложения

Перейти:  
 Вход
ppkBB3cker v.2 © 2008-2014 @ PPK
[ Time : 0.046s | 17 Queries | GZIP : Off ]

cron