img image001 image001 image001 image001 image001 image001 image001 image001 image001 image001 image001 image001 image001 image001 image001 image001

Planets Sun Sun Sun
Статистика раздачи
Автор: Снежана | Размер: 11.67 ГБ | Добавлен: 04 июн 2018
Раздают: 0    Качают: 3
Скачать торрент
Скачать торрент
Описание торрента

СообщениеДобавлено: 04 июн 2018 

Мельник (1-8 серии из 16)

Перевод: Не требуется
Субтитры: отсутствуют
Формат: HDTVRip 720p, MKV, H.264, AC3
Страна: Россия
Режиссер: Станислав Мареев
Жанр: боевик, детектив
Всего серий: 16
Продолжительность: 8 х ~ 00:46:00
Год выпуска: 2018

В ролях: Сергей Шнырев,Сергей Паршин,Александр Константинов,Роман Грибков,Игорь Черневич,Наталья Высочанская,Вячеслав Гасай,Юрий Ковалев,Антон Чернов,Сергей Воробьёв...

Описание: После тяжелого ранения, бывший майор Роман Мельник дослуживает «выслугу» до пенсии в конвойных войсках ФСИН в должности начальника выездного караула. В одну из смен он сопровождает партию особо опасных преступников в специальном вагоне поезда. Остановившись на одной из станций, Мельник по служебной необходимости отлучается. В это время в вагон проникает неизвестный и, нейтрализовав конвой, освобождает 13 заключенных. Руководство ФСб просит Мельника возглавить группу по поимке сбежавших преступников, мотивируя это тем, что расследование не должно получить огласки в прессе, так как может вызвать панику среди населения.



Видео: 1280x720p (16:9), 25,000 fps, MPEG4 AVC (x264), ~4300 Kbps avg, 0.187 bit/pixel
Аудио: 48 kHz, AC3, 2 ch ~ 192 Kbps


Общее
Уникальный идентификатор : 173549865201147297219065775045028883164 (0x82907CFC378C6720AB6F8F5767342ADC)
Полное имя : F:\TREKER\ТЕМР\melnik+[tfile.me]\melnik_[tfile.me]_E01.mkv
Формат : Matroska
Версия формата : Version 2
Размер файла : 1,44 Гбайт
Продолжительность : 46 м. 3 с.
Общий поток : 4486 Кбит/сек
Дата кодирования : UTC 2018-05-30 17:20:41
Программа кодирования : mkvmerge v4.0.0 ('The Stars were mine') сборка от Jun 6 2010 16:18:42
Библиотека кодирования : libebml v1.0.0 + libmatroska v1.0.0
Обложка : Yes
Attachments : cover.jpg

Видео
Идентификатор : 1
Формат : AVC
Формат/Информация : Advanced Video Codec
Профиль формата :
Параметр CABAC формата : Да
Параметр ReFrames формата : 6 кадров
Идентификатор кодека : V_MPEG4/ISO/AVC
Продолжительность : 46 м. 3 с.
Битрейт : 4300 Кбит/сек
Ширина : 1280 пикселей
Высота : 720 пикселей
Соотношение сторон : 16:9
Режим частоты кадров : Постоянный
Частота кадров : 25,000 кадров/сек
Цветовое пространство : YUV
Субдискретизация насыщенности : 4:2:0
Битовая глубина : 8 бит
Тип развёртки : Прогрессивная
Бит/(Пиксели*Кадры) : 0.187
Размер потока : 1,35 Гбайт (94%)
Библиотека кодирования : x264 core 146 r2538 121396c
Настройки программы : cabac=1 / ref=6 / deblock=1:-1:-1 / analyse=0x3:0x133 / me=umh / subme=10 / psy=1 / psy_rd=1.00:0.15 / mixed_ref=1 / me_range=24 / chroma_me=1 / trellis=2 / 8x8dct=1 / cqm=0 / deadzone=21,11 / fast_pskip=0 / chroma_qp_offset=-3 / threads=12 / lookahead_threads=1 / sliced_threads=0 / nr=0 / decimate=1 / interlaced=0 / bluray_compat=0 / constrained_intra=0 / bframes=3 / b_pyramid=2 / b_adapt=2 / b_bias=0 / direct=1 / weightb=1 / open_gop=0 / weightp=2 / keyint=250 / keyint_min=25 / scenecut=40 / intra_refresh=0 / rc_lookahead=50 / rc=abr / mbtree=1 / bitrate=4300 / ratetol=1.0 / qcomp=0.69 / qpmin=0 / qpmax=69 / qpstep=4 / ip_ratio=1.40 / aq=1:1.00
Default : Нет
Forced : Нет

Аудио
Идентификатор : 2
Формат : AC-3
Формат/Информация : Audio Coding 3
Расширение режима : CM (complete main)
Параметр Endianness формата : Big
Идентификатор кодека : A_AC3
Продолжительность : 46 м. 3 с.
Вид битрейта : Постоянный
Битрейт : 192 Кбит/сек
Каналы : 2 канала
Расположение каналов : Front: L R
Частота : 48,0 КГц
Частота кадров : 31,250 кадров/сек (1536 spf)
Битовая глубина : 16 бит
Метод сжатия : С потерями
Размер потока : 63,3 Мбайт (4%)
Default : Нет
Forced : Нет







Внимание! Раздача ведётся путём добавления новых серий; при каждом добавлении создётся новый торрент. Чтобы начать докачку новой серии, пользователям необходимо сделать следующее:
(1) остановить скачивание,
(2) удалить старый торрент у себя из клиента (старые серии удалять не надо),
(3) скачать новый торрент и запустить его у себя в клиенте вместо старого, при этом указать клиенту путь в старую папку куда и должно происходить скачивание новых серий.

Ваш клиент при этом должен произвести хеширование (проверку) старой папки (если не производит сам - помогите ему сделать это), и будет докачивать только те серии которых у вас ещё нет. Старые серии при этом не удаляются, а продолжают раздаваться!

Eсли вы уже удалили старые серии, то предотвратить повторную закачку старых серий можно, отжав галочку в соответсвующих местах при запуске нового торрента. По возможности, желательно не удалять старые серии как можно дольше чтобы релизёр не столько продолжал раздавать старые серии, а смог сконцентрироваться на новых.



Релиз от:

Релиз предоставлен сайтом tfile.me!!



   Похожие торренты   Торрент   Размер 
В этой теме нет новых непрочитанных сообщений. Мельник (1-16 серии из 16) (Станислав Мареев) [2018, боевик, детектив, HDTVRip 720p]

7 | 6

23.79 ГБ

В этой теме нет новых непрочитанных сообщений. Мельник (1-4 серии из 16) (Станислав Мареев) [2018, боевик, детектив, HDTVRip 720p]

0 | 0

5.78 ГБ

В этой теме нет новых непрочитанных сообщений. Мельник (1-16 серии из 16) (Станислав Мареев) [2018, боевик, детектив, HDTVRip]

486 | 197

10.07 ГБ

В этой теме нет новых непрочитанных сообщений. Мельник (1-8 серии из 16) (Станислав Мареев) [2018, боевик, детектив, HDTVRip]

26 | 2

4.94 ГБ

В этой теме нет новых непрочитанных сообщений. Мельник (1-4 серии из 16) (Станислав Мареев) [2018, боевик, детектив, HDTVRip]

3 | 0

2.45 ГБ

В этой теме нет новых непрочитанных сообщений. Мельник (1-12 серии из 16) (Станислав Мареев) [2018, боевик, детектив, SATRip]

53 | 17

7.24 ГБ

В этой теме нет новых непрочитанных сообщений. Мельник (1-14 серии из 16) (Станислав Мареев) [2018, боевик, детектив, WEBRip-AVC]

1 | 0

10.12 ГБ




Вы не можете начинать темы
Вы не можете отвечать на сообщения
Вы не можете редактировать свои сообщения
Вы не можете удалять свои сообщения
Вы не можете добавлять вложения

Перейти:  
 Вход
ppkBB3cker v.2 © 2008-2014 @ PPK
[ Time : 0.125s | 15 Queries | GZIP : Off ]

cron