img image001 image001 image001 image001 image001 image001 image001 image001 image001 image001 image001 image001 image001 image001 image001 image001

Planets Sun Sun Sun
Статистика раздачи
Автор: Снежана | Размер: 3.08 ГБ | Добавлен: 06 июн 2018
Раздают: 2    Качают: 0
Скачать торрент
Скачать торрент
Описание торрента

СообщениеДобавлено: 06 июн 2018 

Бывшие (1-4 серии из 8)

Перевод: Не требуется, cубтитры: отсутствуют
Формат: HDTVRip-AVC, MKV, H.264, AC3
Страна: Россия
Режиссер: Иван Китаев
Жанр: драма, мелодрама
Всего серий: 8
Продолжительность: 4 х ~ 00:50:00
Год выпуска: 2018

В ролях: Любовь Аксёнова, Денис Шведов, Григорий Чабан, Татьяна Волкова (III), Виталий Хаев, Наталья Рогожкина, Софья Лебедева, Владимир Жеребцов, Павел Ворожцов, Сергей Галахов, Софья Урицкая, Сергей Ланбамин, Константин Адаев, Леонид Громов, Виктория Полторак, Сахат Дурсунов, Марина Орёл, Роман Индык, Владимир Стеклов, Любовь Германова, Ольга Лапшина, Василий Кортуков, Даниил Вахрушев, Петар Зекавица, Евгений Сытый, Анатолий Журавлёв

Описание: Яна Миронова, дочь очень богатого чиновника, глубоко несчастна. Сложные, разрушительные отношения в семье и отсутствие друзей отбивают у нее желание быть в реальном мире, давно ставшим отвратительным. Девушка находит самый простой способ решения своих проблем, и через некоторое время становится пациенткой реабилитационной клиники для алкоголиков и наркозависимых. Там она знакомится с Ильей - новым психологом-консультантом. Поначалу Яна для него - очередная сложная пациентка, но постепенно Илья начинает видеть таланты Яны, раскрывающиеся в процессе выздоровления. Зарождаются новые чувства, неожиданные для обоих…

Рейтинг и доп. информация:


Видео: 1024x576 (16:9), 25 fps, AVC MPEG-4 (x264), ~ 2000 kbps , 0.136 bit/pixel
Аудио: 48 kHz, AC3, 2/0 (L,R) ch, ~192.00 kbps avg
Внимание! Раздача ведётся путём добавления новых серий. При каждом добавлении создаётся новый торрент.
Чтобы начать докачку новой серии, пользователям необходимо сделать следующее:
1. Остановить скачивание.
2. Удалить старый торрент у себя из клиента (старые серии удалять не надо).
3. Скачать новый торрент и запустить его у себя в клиенте вместо старого, при этом указать клиенту путь в старую папку куда и должно происходить скачивание новых серий. Ваш клиент при этом должен произвести хеширование (проверку) старой папки и будет докачивать только те серии, которых у вас ещё нет. Старые серии при этом не удаляются, а продолжают раздаваться! Eсли вы уже удалили старые серии, то предотвратить повторную закачку старых серий можно, отжав галочку в соответствующих местах при запуске нового торрента.


Общее
Уникальный идентификатор : 183509033314519009925551754462538044518 (0x8A0E8DE23005CC108F459FD585C51466)
Полное имя : C:\Byvshie.(2017).HDTVRip.(AVC).Files-x\01.Byvshie.(2017).HDTVRip.AVC.by.Серый1779.Files-x.mkv
Формат : Matroska
Версия формата : Version 2
Размер файла : 791 Мбайт
Продолжительность : 50 м. 24 с.
Общий поток : 2194 Кбит/сек
Дата кодирования : UTC 2018-06-04 18:07:35
Программа кодирования : mkvmerge v7.8.0 ('River Man') 32bit built on Apr 3 2015 12:11:22
Библиотека кодирования : libebml v1.3.1 + libmatroska v1.4.2

Видео
Идентификатор : 1
Формат : AVC
Формат/Информация : Advanced Video Codec
Профиль формата :
Настройки формата : CABAC / 9 Ref Frames
Параметр CABAC формата : Да
Параметр RefFrames формата : 9 кадров
Идентификатор кодека : V_MPEG4/ISO/AVC
Продолжительность : 50 м. 24 с.
Битрейт : 2000 Кбит/сек
Ширина : 1024 пикселя
Высота : 576 пикселей
Соотношение сторон : 16:9
Режим частоты кадров : Постоянный
Частота кадров : 25,000 кадров/сек
Цветовое пространство : YUV
Субдискретизация насыщенности : 4:2:0
Битовая глубина : 8 бит
Тип развёртки : Прогрессивная
Бит/(Пиксели*Кадры) : 0.136
Размер потока : 706 Мбайт (89%)
Библиотека кодирования : x264 core 146 r2538 121396c
Настройки программы : cabac=1 / ref=9 / deblock=1:-2:-1 / analyse=0x3:0x133 / me=umh / subme=9 / psy=1 / psy_rd=1.00:0.15 / mixed_ref=1 / me_range=32 / chroma_me=1 / trellis=2 / 8x8dct=1 / cqm=0 / deadzone=21,11 / fast_pskip=0 / chroma_qp_offset=-3 / threads=18 / lookahead_threads=3 / sliced_threads=0 / nr=0 / decimate=1 / interlaced=0 / bluray_compat=0 / constrained_intra=0 / bframes=9 / b_pyramid=2 / b_adapt=2 / b_bias=0 / direct=1 / weightb=1 / open_gop=0 / weightp=2 / keyint=250 / keyint_min=25 / scenecut=40 / intra_refresh=0 / rc=2pass / mbtree=0 / bitrate=2000 / ratetol=1.0 / qcomp=0.60 / qpmin=0 / qpmax=69 / qpstep=4 / cplxblur=20.0 / qblur=0.5 / ip_ratio=1.40 / pb_ratio=1.30 / aq=2:1.00
Default : Да
Forced : Нет
Цветовой диапазон : Limited
Основные цвета : BT.709
Характеристики трансфера : BT.709
Коэффициенты матрицы : BT.709

Аудио
Идентификатор : 2
Формат : AC-3
Формат/Информация : Audio Coding 3
Идентификатор кодека : A_AC3
Продолжительность : 50 м. 24 с.
Вид битрейта : Постоянный
Битрейт : 192 Кбит/сек
Каналы : 2 канала
Расположение каналов : Front: L R
Частота : 48,0 КГц
Частота кадров : 31,250 кадров/сек (1536 SPF)
Битовая глубина : 16 бит
Метод сжатия : С потерями
Размер потока : 69,2 Мбайт (9%)
ServiceKind/String : Complete Main
Default : Да
Forced : Нет








   Похожие торренты   Торрент   Размер 
В этой теме нет новых непрочитанных сообщений. Бывшие (1-2 серии из 8) (Иван Китаев) [2018, драма, мелодрама, HDTVRip-AVC]

0 | 3

1.54 ГБ

В этой теме нет новых непрочитанных сообщений. Бывшие (1-2 серии из 8) (Иван Китаев) [2018, драма, мелодрама, HDTVRip]

6 | 0

1.41 ГБ

В этой теме нет новых непрочитанных сообщений. Бывшие (1-4 серии из 8) (Иван Китаев) [2018, драма, мелодрама, HDTVRip]

0 | 0

2.81 ГБ

В этой теме нет новых непрочитанных сообщений. Бывшие (1-6 серии из 8) (Иван Китаев) [2018, драма, мелодрама, HDTVRip-AVC]

0 | 0

4.64 ГБ

В этой теме нет новых непрочитанных сообщений. Бывшие (1-8 серии из 8) (Иван Китаев) [2018, драма, мелодрама, HDTVRip]

35 | 8

5.67 ГБ

В этой теме нет новых непрочитанных сообщений. Бывшие (1-6 серии из 8) (Иван Китаев) [2018, драма, мелодрама, HDTVRip]

35 | 13

4.23 ГБ

В этой теме нет новых непрочитанных сообщений. Бывшие (1-8 серии из 8) (Иван Китаев) [2018, драма, мелодрама, HDTVRip-AVC]

48 | 7

6.21 ГБ




Вы не можете начинать темы
Вы не можете отвечать на сообщения
Вы не можете редактировать свои сообщения
Вы не можете удалять свои сообщения
Вы не можете добавлять вложения

Перейти:  
 Вход
ppkBB3cker v.2 © 2008-2014 @ PPK
[ Time : 0.036s | 16 Queries | GZIP : Off ]

cron