img image001 image001 image001 image001 image001 image001 image001 image001 image001 image001 image001 image001 image001 image001 image001 image001

Planets Sun Sun Sun
Статистика раздачи
Автор: Снежана | Размер: 6.91 ГБ | Добавлен: 07 июн 2018
Раздают: 3    Качают: 0
Скачать торрент
Скачать торрент
Описание торрента

СообщениеДобавлено: 07 июн 2018 

Бывшие (1-6 серии из 8 )

Перевод: Не требуется
Субтитры: отсутствуют
Формат: WEB-DL 720p, MKV, H.264, AC3
Страна: Россия
Режиссер: Иван Китаев
Жанр: драма, мелодрама
Всего серий: 8
Продолжительность: 6 х ~ 00:50:00
Год выпуска: 2017

В ролях: Любовь Аксенова,Денис Шведов,Виталий Хаев,Григорий Чабан,Леонид Громов,Даниил Вахрушев,Линда Лапиньш,Анна Глаубэ,Софья Лебедева,Сергей Лобынцев...

Описание: Главная героиня сериала — Яна — пациентка реабилитационной клиники для алкоголиков и наркозависимых. Перед ней стоит нелегкий путь к выздоровлению. Но однажды в жизни Яны все меняется. Она встречает Илью — нового психолога-консультанта. Поначалу девушка для него — очередная сложная пациентка, но постепенно Илья начинает видеть таланты Яны, раскрывающиеся в процессе выздоровления. Зарождаются новые чувства, неожиданные для обоих……



Видео: 1280x720p (16:9), 25,000 fps, AVC MPEG-4 (x264), ~ 3058 kbps , 0.133 bit/pixel
Аудио: 48 kHz, AC3, 2/0 (L,R) ch, ~192.00 kbps avg


Общее
Уникальный идентификатор : 237436387095758303649477470308697595281 (0xB2A095B41BB72638ACCB8188B69B5D91)
Полное имя : F:\TREKER\ТЕМР\byvshie_[tfile.ru]\byvshie_[tfile.ru]_e01.mkv
Формат : Matroska
Версия формата : Version 2
Размер файла : 1,18 Гбайт
Продолжительность : 50 м. 56 с.
Режим общего битрейта : Переменный
Общий поток : 3316 Кбит/сек
Название фильма : byvshie_[tfile.ru]
Дата кодирования : UTC 2018-06-05 06:56:58
Программа кодирования : mkvmerge v4.0.0 ('The Stars were mine') сборка от Jun 6 2010 16:18:42
Библиотека кодирования : libebml v1.0.0 + libmatroska v1.0.0
Обложка : Yes
Attachments : cover.jpg

Видео
Идентификатор : 1
Формат : AVC
Формат/Информация : Advanced Video Codec
Профиль формата :
Параметр CABAC формата : Да
Параметр ReFrames формата : 4 кадра
Параметр GOP формата : M=2, N=15
Идентификатор кодека : V_MPEG4/ISO/AVC
Продолжительность : 50 м. 56 с.
Вид битрейта : Переменный
Битрейт : 3058 Кбит/сек
Максимальный битрейт : 3201 Кбит/сек
Ширина : 1280 пикселей
Высота : 720 пикселей
Соотношение сторон : 16:9
Режим частоты кадров : Постоянный
Частота кадров : 25,000 кадров/сек
Цветовое пространство : YUV
Субдискретизация насыщенности : 4:2:0
Битовая глубина : 8 бит
Тип развёртки : Прогрессивная
Бит/(Пиксели*Кадры) : 0.133
Размер потока : 1,09 Гбайт (92%)
Default : Нет
Forced : Нет

Аудио
Идентификатор : 2
Формат : AC-3
Формат/Информация : Audio Coding 3
Расширение режима : CM (complete main)
Параметр Endianness формата : Big
Идентификатор кодека : A_AC3
Продолжительность : 50 м. 56 с.
Вид битрейта : Постоянный
Битрейт : 192 Кбит/сек
Каналы : 2 канала
Расположение каналов : Front: L R
Частота : 48,0 КГц
Частота кадров : 31,250 кадров/сек (1536 spf)
Битовая глубина : 16 бит
Метод сжатия : С потерями
Размер потока : 70,0 Мбайт (6%)
Default : Нет
Forced : Нет







Внимание! Раздача ведётся путём добавления новых серий; при каждом добавлении создётся новый торрент. Чтобы начать докачку новой серии, пользователям необходимо сделать следующее:
(1) остановить скачивание,
(2) удалить старый торрент у себя из клиента (старые серии удалять не надо),
(3) скачать новый торрент и запустить его у себя в клиенте вместо старого, при этом указать клиенту путь в старую папку куда и должно происходить скачивание новых серий.

Ваш клиент при этом должен произвести хеширование (проверку) старой папки (если не производит сам - помогите ему сделать это), и будет докачивать только те серии которых у вас ещё нет. Старые серии при этом не удаляются, а продолжают раздаваться!

Eсли вы уже удалили старые серии, то предотвратить повторную закачку старых серий можно, отжав галочку в соответсвующих местах при запуске нового торрента. По возможности, желательно не удалять старые серии как можно дольше чтобы релизёр не столько продолжал раздавать старые серии, а смог сконцентрироваться на новых.



Релиз от:

Релиз предоставлен сайтом tfile.me!!



   Похожие торренты   Торрент   Размер 
В этой теме нет новых непрочитанных сообщений. Бывшие (1-2 серии из 8) (Иван Китаев) [2017, драма, мелодрама, WEB-DL 720p]

2 | 0

2.19 ГБ

В этой теме нет новых непрочитанных сообщений. Бывшие (1-4 серии из 8) (Иван Китаев) [2017, драма, мелодрама, WEB-DL 720p]

0 | 0

4.53 ГБ

В этой теме нет новых непрочитанных сообщений. Бывшие (1-8 серии из 8) (Иван Китаев) [2017, драма, мелодрама, WEB-DL 720p]

0 | 3

9.31 ГБ

В этой теме нет новых непрочитанных сообщений. Бывшие (1-8 серии из 8) (Иван Китаев) [2018, драма, мелодрама, HDTVRip 720p]

51 | 19

10.45 ГБ

В этой теме нет новых непрочитанных сообщений. Бывшие (1-6 серии из 8) (Иван Китаев) [2018, драма, мелодрама, HDTVRip 720p]

3 | 0

7.81 ГБ

В этой теме нет новых непрочитанных сообщений. Бывшие (1-4 серии из 8) (Иван Китаев) [2018, драма, мелодрама, HDTVRip 720p]

0 | 0

5.18 ГБ

В этой теме нет новых непрочитанных сообщений. Бывшие (1- серии из 8) (Иван Китаев) [2018, драма, мелодрама, HDTVRip 720p]

2 | 0

1.3 ГБ




Вы не можете начинать темы
Вы не можете отвечать на сообщения
Вы не можете редактировать свои сообщения
Вы не можете удалять свои сообщения
Вы не можете добавлять вложения

Перейти:  
 Вход
ppkBB3cker v.2 © 2008-2014 @ PPK
[ Time : 0.349s | 18 Queries | GZIP : Off ]

cron