img image001 image001 image001 image001 image001 image001 image001 image001 image001 image001 image001 image001 image001 image001 image001 image001

Planets Sun Sun Sun
Статистика раздачи
Автор: Снежана | Размер: 10.45 ГБ | Добавлен: 09 июн 2018
Раздают: 51    Качают: 19
Скачать торрент
Скачать торрент
Описание торрента

СообщениеДобавлено: 09 июн 2018 

Бывшие (1-8 серии из 8)

Перевод: Не требуется, cубтитры: отсутствуют
Формат: HDTVRip 720p, MKV, H.264, AC3
Страна: Россия
Режиссер: Иван Китаев
Жанр: драма, мелодрама
Всего серий: 8
Продолжительность: 8 х ~ 00:51:00
Год выпуска: 2018

В ролях: Любовь Аксёнова, Денис Шведов, Григорий Чабан, Татьяна Волкова (III), Виталий Хаев, Наталья Рогожкина, Софья Лебедева, Владимир Жеребцов, Павел Ворожцов, Сергей Галахов, Софья Урицкая, Сергей Ланбамин, Константин Адаев, Леонид Громов, Виктория Полторак, Сахат Дурсунов, Марина Орёл, Роман Индык, Владимир Стеклов, Любовь Германова, Ольга Лапшина, Василий Кортуков, Даниил Вахрушев, Петар Зекавица, Евгений Сытый, Анатолий Журавлёв

Описание: Яна Миронова, дочь очень богатого чиновника, глубоко несчастна. Сложные, разрушительные отношения в семье и отсутствие друзей отбивают у нее желание быть в реальном мире, давно ставшим отвратительным. Девушка находит самый простой способ решения своих проблем, и через некоторое время становится пациенткой реабилитационной клиники для алкоголиков и наркозависимых. Там она знакомится с Ильей - новым психологом-консультантом. Поначалу Яна для него - очередная сложная пациентка, но постепенно Илья начинает видеть таланты Яны, раскрывающиеся в процессе выздоровления. Зарождаются новые чувства, неожиданные для обоих…

Рейтинг и доп. информация:


Видео: 1280x720 (16:9), 25 fps, AVC MPEG-4 (x264), ~ 3500 kbps avg, 0.152 bit/pixel
Аудио: 48 kHz, AC3, 2/0 (L,R) ch, ~192.00 kbps avg
Общее
Уникальный идентификатор : 255022197850262205698175567529586301602 (0xBFDB7D1D8FCF4F0CB47DE982EDDD9AA2)
Полное имя : C:\Byvshie.HDTVRip.(720p).GeneralFilm\01.Byvshie.HDTVRip.(720p).GeneralFilm.mkv
Формат : Matroska
Версия формата : Version 2
Размер файла : 1,30 Гбайт
Продолжительность : 50 м. 24 с.
Общий поток : 3694 Кбит/сек
Дата кодирования : UTC 2018-06-04 16:52:22
Программа кодирования : mkvmerge v6.1.0 ('Old Devil') built on Mar 4 2013 09:10:42
Библиотека кодирования : libebml v1.3.0 + libmatroska v1.4.0

Видео
Идентификатор : 1
Формат : AVC
Формат/Информация : Advanced Video Codec
Профиль формата :
Настройки формата : CABAC / 9 Ref Frames
Параметр CABAC формата : Да
Параметр RefFrames формата : 9 кадров
Идентификатор кодека : V_MPEG4/ISO/AVC
Продолжительность : 50 м. 24 с.
Битрейт : 3500 Кбит/сек
Ширина : 1280 пикселей
Высота : 720 пикселей
Соотношение сторон : 16:9
Режим частоты кадров : Постоянный
Частота кадров : 25,000 кадров/сек
Цветовое пространство : YUV
Субдискретизация насыщенности : 4:2:0
Битовая глубина : 8 бит
Тип развёртки : Прогрессивная
Бит/(Пиксели*Кадры) : 0.152
Размер потока : 1,21 Гбайт (93%)
Библиотека кодирования : x264 core 130 r2273 b3065e6
Настройки программы : cabac=1 / ref=9 / deblock=1:-2:-1 / analyse=0x3:0x133 / me=umh / subme=9 / psy=1 / psy_rd=1.00:0.15 / mixed_ref=1 / me_range=32 / chroma_me=1 / trellis=2 / 8x8dct=1 / cqm=0 / deadzone=21,11 / fast_pskip=0 / chroma_qp_offset=-3 / threads=18 / lookahead_threads=3 / sliced_threads=0 / nr=0 / decimate=0 / interlaced=0 / bluray_compat=0 / constrained_intra=0 / bframes=9 / b_pyramid=2 / b_adapt=2 / b_bias=0 / direct=3 / weightb=1 / open_gop=0 / weightp=2 / keyint=250 / keyint_min=25 / scenecut=40 / intra_refresh=0 / rc=2pass / mbtree=0 / bitrate=3500 / ratetol=1.0 / qcomp=0.60 / qpmin=0 / qpmax=69 / qpstep=4 / cplxblur=20.0 / qblur=0.5 / ip_ratio=1.40 / pb_ratio=1.30 / aq=2:1.00
Default : Да
Forced : Нет
Цветовой диапазон : Limited
Основные цвета : BT.709
Характеристики трансфера : BT.709
Коэффициенты матрицы : BT.709

Аудио
Идентификатор : 2
Формат : AC-3
Формат/Информация : Audio Coding 3
Идентификатор кодека : A_AC3
Продолжительность : 50 м. 24 с.
Вид битрейта : Постоянный
Битрейт : 192 Кбит/сек
Каналы : 2 канала
Расположение каналов : Front: L R
Частота : 48,0 КГц
Частота кадров : 31,250 кадров/сек (1536 SPF)
Битовая глубина : 16 бит
Метод сжатия : С потерями
Размер потока : 69,2 Мбайт (5%)
ServiceKind/String : Complete Main
Default : Да
Forced : Нет








   Похожие торренты   Торрент   Размер 
В этой теме нет новых непрочитанных сообщений. Бывшие (1-2 серии из 8) (Иван Китаев) [2018, драма, мелодрама, HDTVRip 720p]

0 | 0

2.59 ГБ

В этой теме нет новых непрочитанных сообщений. Бывшие (1-4 серии из 8) (Иван Китаев) [2018, драма, мелодрама, HDTVRip 720p]

0 | 0

5.18 ГБ

В этой теме нет новых непрочитанных сообщений. Бывшие (1-6 серии из 8) (Иван Китаев) [2018, драма, мелодрама, HDTVRip 720p]

3 | 0

7.81 ГБ

В этой теме нет новых непрочитанных сообщений. Бывшие (1- серии из 8) (Иван Китаев) [2018, драма, мелодрама, HDTVRip 720p]

2 | 0

1.3 ГБ

В этой теме нет новых непрочитанных сообщений. Бывшие (1-8 серии из 8) (Иван Китаев) [2018, драма, мелодрама, HDTVRip]

35 | 8

5.67 ГБ

В этой теме нет новых непрочитанных сообщений. Бывшие (1-8 серии из 8) (Иван Китаев) [2018, драма, мелодрама, HDTVRip-AVC]

48 | 7

6.21 ГБ

В этой теме нет новых непрочитанных сообщений. Бывшие (1-2 серии из 8) (Иван Китаев) [2018, драма, мелодрама, HDTVRip]

6 | 0

1.41 ГБ




Вы не можете начинать темы
Вы не можете отвечать на сообщения
Вы не можете редактировать свои сообщения
Вы не можете удалять свои сообщения
Вы не можете добавлять вложения

Перейти:  
 Вход
ppkBB3cker v.2 © 2008-2014 @ PPK
[ Time : 0.039s | 17 Queries | GZIP : Off ]

cron