img image001 image001 image001 image001 image001 image001 image001 image001 image001 image001 image001 image001 image001 image001 image001 image001

Planets Sun Sun Sun
Статистика раздачи
Автор: Снежана | Размер: 18.54 ГБ | Добавлен: 09 июн 2018
Раздают: 113    Качают: 21
Скачать торрент
Скачать торрент
Описание торрента

СообщениеДобавлено: 09 июн 2018 

Бывшие (1-8 серии из 8)

Перевод: Не требуется, cубтитры: отсутствуют
Формат: HDTV 1080i, MPEG, H.264, AC3/MP2
Страна: Россия
Режиссер: Иван Китаев
Жанр: драма, мелодрама
Всего серий: 8
Продолжительность: 8 х ~ 00:50:00
Год выпуска: 2018

В ролях: Любовь Аксёнова, Денис Шведов, Григорий Чабан, Татьяна Волкова (III), Виталий Хаев, Наталья Рогожкина, Софья Лебедева, Владимир Жеребцов, Павел Ворожцов, Сергей Галахов, Софья Урицкая, Сергей Ланбамин, Константин Адаев, Леонид Громов, Виктория Полторак, Сахат Дурсунов, Марина Орёл, Роман Индык, Владимир Стеклов, Любовь Германова, Ольга Лапшина, Василий Кортуков, Даниил Вахрушев, Петар Зекавица, Евгений Сытый, Анатолий Журавлёв

Описание: Яна Миронова, дочь очень богатого чиновника, глубоко несчастна. Сложные, разрушительные отношения в семье и отсутствие друзей отбивают у нее желание быть в реальном мире, давно ставшим отвратительным. Девушка находит самый простой способ решения своих проблем, и через некоторое время становится пациенткой реабилитационной клиники для алкоголиков и наркозависимых. Там она знакомится с Ильей - новым психологом-консультантом. Поначалу Яна для него - очередная сложная пациентка, но постепенно Илья начинает видеть таланты Яны, раскрывающиеся в процессе выздоровления. Зарождаются новые чувства, неожиданные для обоих…

Рейтинг и доп. информация:


Видео: 1920х1080, (16:9), 25 fps, AVC MPEG-TS (x264), High@L4 ~ 5300 kbps avg, 0.102 bit/pixel
Аудио #1: 48 kHz, AC3 Dolby Digital, 3/2 (L,C,R,l,r) + LFE ch, ~384.00 kbps avg
Аудио #2: 48 kHz, MPEG Layer 2, 2 ch, ~192.00 kbps avg
Общее
Идентификатор : 1 (0x1)
Полное имя : C:\Users\User\Desktop\Новая папка\Byvshie.HDTV(1080i).GeneralFilm\01.Byvshie.HDTV(1080i).GeneralFilm.ts
Формат : MPEG-TS
Размер файла : 2,16 Гбайт
Продолжительность : 50 м. 24 с.
Режим общего битрейта : Переменный
Общий поток : 6146 Кбит/сек

Видео
Идентификатор : 4121 (0x1019)
Идентификатор меню : 5640 (0x1608)
Формат : AVC
Формат/Информация : Advanced Video Codec
Профиль формата : High@L4
Настройки формата : CABAC / 3 Ref Frames
Параметр CABAC формата : Да
Параметр RefFrames формата : 3 кадра
Параметр GOP формата : M=4, N=32
Идентификатор кодека : 27
Продолжительность : 50 м. 24 с.
Битрейт : 5300 Кбит/сек
Ширина : 1920 пикселей
Высота : 1080 пикселей
Соотношение сторон : 16:9
Частота кадров : 25,000 кадров/сек
Стандарт вещания : Component
Цветовое пространство : YUV
Субдискретизация насыщенности : 4:2:0
Битовая глубина : 8 бит
Тип развёртки : Чересстрочная
Метод сохранения типа развёртки : Раздельные поля
Порядок развёртки : Верхнее поле первое
Бит/(Пиксели*Кадры) : 0.102
Размер потока : 1,85 Гбайт (86%)
Цветовой диапазон : Limited
Основные цвета : BT.709
Характеристики трансфера : BT.709
Коэффициенты матрицы : BT.709

Аудио #1
Идентификатор : 4124 (0x101C)
Идентификатор меню : 5640 (0x1608)
Формат : AC-3
Формат/Информация : Audio Coding 3
Идентификатор кодека : 6
Продолжительность : 50 м. 24 с.
Вид битрейта : Постоянный
Битрейт : 384 Кбит/сек
Каналы : 6 каналов
Расположение каналов : Front: L C R, Side: L R, LFE
Частота : 48,0 КГц
Частота кадров : 31,250 кадров/сек (1536 SPF)
Битовая глубина : 16 бит
Метод сжатия : С потерями
Задержка видео : -120 мс.
Размер потока : 138 Мбайт (6%)
Язык : Russian
ServiceKind/String : Complete Main

Аудио #2
Идентификатор : 4125 (0x101D)
Идентификатор меню : 5640 (0x1608)
Формат : MPEG Audio
Версия формата : Version 1
Профиль формата : Layer 2
Идентификатор кодека : 3
Продолжительность : 50 м. 24 с.
Вид битрейта : Постоянный
Битрейт : 192 Кбит/сек
Каналы : 2 канала
Частота : 48,0 КГц
Частота кадров : 41,667 кадра/сек (1152 SPF)
Метод сжатия : С потерями
Задержка видео : -120 мс.
Размер потока : 69,2 Мбайт (3%)
Язык : Russian








   Похожие торренты   Торрент   Размер 
В этой теме нет новых непрочитанных сообщений. Бывшие (1-6 серии из 8) (Иван Китаев) [2018, драма, мелодрама, HDTVRip-AVC]

0 | 0

4.64 ГБ

В этой теме нет новых непрочитанных сообщений. Бывшие (1-2 серии из 8) (Иван Китаев) [2018, драма, мелодрама, WEB-DLRip]

1 | 0

1.29 ГБ

В этой теме нет новых непрочитанных сообщений. Бывшие (1-4 серии из 8) (Иван Китаев) [2018, драма, мелодрама, HDTVRip-AVC]

2 | 0

3.08 ГБ

В этой теме нет новых непрочитанных сообщений. Бывшие (1-4 серии из 8) (Иван Китаев) [2018, драма, мелодрама, HDTVRip]

0 | 0

2.81 ГБ

В этой теме нет новых непрочитанных сообщений. Бывшие (1-8 серии из 8) (Иван Китаев) [2018, драма, мелодрама, WEB-DLRip]

50 | 10

5.05 ГБ

В этой теме нет новых непрочитанных сообщений. Бывшие (1-4 серии из 8) (Иван Китаев) [2018, драма, мелодрама, WEB-DLRip]

4 | 0

2.58 ГБ

В этой теме нет новых непрочитанных сообщений. Бывшие (1-6 серии из 8) (Иван Китаев) [2018, драма, мелодрама, WEB-DLRip]

0 | 0

3.83 ГБ




Вы не можете начинать темы
Вы не можете отвечать на сообщения
Вы не можете редактировать свои сообщения
Вы не можете удалять свои сообщения
Вы не можете добавлять вложения

Перейти:  
 Вход
ppkBB3cker v.2 © 2008-2014 @ PPK
[ Time : 0.036s | 18 Queries | GZIP : Off ]

cron