img image001 image001 image001 image001 image001 image001 image001 image001 image001 image001 image001 image001 image001 image001 image001 image001

Planets Sun Sun Sun
Статистика раздачи
Автор: Снежана | Размер: 6.66 ГБ | Добавлен: 12 июн 2018
Раздают: 4    Качают: 2
Скачать торрент
Скачать торрент
Описание торрента

СообщениеДобавлено: 12 июн 2018 

Пелена (1-6 серии из 10)

Перевод: Не требуется, cубтитры: отсутствуют
Формат: WEBRip 720p, MKV, H.264, AC3
Страна: Украина
Режиссер: Валерий Ибрагимов
Жанр: детектив, криминал, мелодрама
Всего серий: 10
Продолжительность: 6 х ~ 00:50:00
Год выпуска: 2017

В ролях: Александра Булычёва, Антон Батырев, Андрей Чадов, Валерий Баринов, Игорь Головин, Настя Кербенген, Елизавета Анохина, Владимир Горянский, Ирина Мак, Лев Сомов, Олеся Жураковская, Константин Корецкий, Софья Письман, Алексей Тритенко, Мирослава Филиппович, Ирина Авдеенко, Владимир Гладкий, Сергей Сипливый, Наталия Цыганенко, Владислав Мамчур, Елена Хижная, Наталья Корецкая, Сергей Кучера, Евгений Паперный, Станислав Щёкин

Описание: Оксана – журналистка, специализирующаяся на громких коррупционных делах. Кирилл – следователь по особо тяжким преступлениям, которому эта журналистка изрядно портит жизнь. На первый взгляд, они враги, а на самом деле – супруги на грани развода. Из-за своего расследования Оксана попадает в эпицентр масштабного скандала и окончательно ссорится с мужем. В качестве наказания ей предстоит на пару месяцев залечь на дно, работая корреспондентом местной газеты «Вечерняя Пелена».

Рейтинг и доп. информация:


Видео: 1280x720 (16:9), 25 fps, AVC MPEG-4 (x264), ~ 3000 kbps avg, 0.130 bit/pixel
Аудио: 48 kHz, AC3, 2/0 (L,R) ch, ~192.00 kbps avg
Внимание! Раздача ведётся путём добавления новых серий. При каждом добавлении создаётся новый торрент.
Чтобы начать докачку новой серии, пользователям необходимо сделать следующее:
1. Остановить скачивание.
2. Удалить старый торрент у себя из клиента (старые серии удалять не надо).
3. Скачать новый торрент и запустить его у себя в клиенте вместо старого, при этом указать клиенту путь в старую папку куда и должно происходить скачивание новых серий. Ваш клиент при этом должен произвести хеширование (проверку) старой папки и будет докачивать только те серии, которых у вас ещё нет. Старые серии при этом не удаляются, а продолжают раздаваться! Eсли вы уже удалили старые серии, то предотвратить повторную закачку старых серий можно, отжав галочку в соответствующих местах при запуске нового торрента.


Общее
Уникальный идентификатор : 36478454849029884976702781554802371218 (0x1B717EAE9CC080BFFAD42D8ED3712A92)
Полное имя : C:\Пелена.2017.WEBRip (720p).by.Nicodem.Files-x\01.Пелена.2017.WEBRip (720p).by.Nicodem.Files-x.mkv
Формат : Matroska
Версия формата : Version 4 / Version 2
Размер файла : 1,10 Гбайт
Продолжительность : 49 м. 17 с.
Общий поток : 3183 Кбит/сек
Программа кодирования : Lavf56.36.100
Библиотека кодирования : Lavf56.36.100

Видео
Идентификатор : 1
Формат : AVC
Формат/Информация : Advanced Video Codec
Профиль формата :
Настройки формата : CABAC / 4 Ref Frames
Параметр CABAC формата : Да
Параметр RefFrames формата : 4 кадра
Идентификатор кодека : V_MPEG4/ISO/AVC
Продолжительность : 49 м. 17 с.
Битрейт : 3000 Кбит/сек
Ширина : 1280 пикселей
Высота : 720 пикселей
Соотношение сторон : 16:9
Режим частоты кадров : Постоянный
Частота кадров : 25,000 кадров/сек
Цветовое пространство : YUV
Субдискретизация насыщенности : 4:2:0
Битовая глубина : 8 бит
Тип развёртки : Прогрессивная
Бит/(Пиксели*Кадры) : 0.130
Размер потока : 1,01 Гбайт (92%)
Библиотека кодирования : x264 core 142 r2491 24e4fed
Настройки программы : cabac=1 / ref=3 / deblock=1:0:0 / analyse=0x3:0x113 / me=hex / subme=7 / psy=1 / psy_rd=1.00:0.00 / mixed_ref=1 / me_range=16 / chroma_me=1 / trellis=1 / 8x8dct=1 / cqm=0 / deadzone=21,11 / fast_pskip=1 / chroma_qp_offset=-2 / threads=16 / lookahead_threads=2 / sliced_threads=0 / nr=0 / decimate=1 / interlaced=0 / bluray_compat=0 / constrained_intra=0 / bframes=3 / b_pyramid=2 / b_adapt=1 / b_bias=0 / direct=1 / weightb=1 / open_gop=0 / weightp=2 / keyint=250 / keyint_min=25 / scenecut=40 / intra_refresh=0 / rc_lookahead=40 / rc=abr / mbtree=1 / bitrate=3000 / ratetol=1.0 / qcomp=0.60 / qpmin=0 / qpmax=69 / qpstep=4 / ip_ratio=1.40 / aq=1:1.00
Default : Да
Forced : Нет
Цветовой диапазон : Limited
Характеристики трансфера : BT.601
Коэффициенты матрицы : BT.601

Аудио
Идентификатор : 2
Формат : AC-3
Формат/Информация : Audio Coding 3
Идентификатор кодека : A_AC3
Продолжительность : 49 м. 17 с.
Вид битрейта : Постоянный
Битрейт : 192 Кбит/сек
Каналы : 2 канала
Расположение каналов : Front: L R
Частота : 48,0 КГц
Частота кадров : 31,250 кадров/сек (1536 SPF)
Битовая глубина : 16 бит
Метод сжатия : С потерями
Задержка видео : -80 мс.
Размер потока : 67,7 Мбайт (6%)
Язык : unknown
ServiceKind/String : Complete Main
Default : Да
Forced : Нет










   Похожие торренты   Торрент   Размер 
В этой теме нет новых непрочитанных сообщений. Пелена (1-2 серии из 10) (Валерий Ибрагимов) [2017, детектив, криминал, мелодрама, WEBRip 720p]

0 | 0

2.23 ГБ

В этой теме нет новых непрочитанных сообщений. Пелена (1-10 серии из 10) (Валерий Ибрагимов) [2017, детектив, криминал, мелодрама, WEBRip 720p]

30 | 6

11.27 ГБ

В этой теме нет новых непрочитанных сообщений. Пелена (1- серии из 10) (Валерий Ибрагимов) [2017, детектив, криминал, мелодрама, WEBRip 720p]

2 | 0

1.1 ГБ

В этой теме нет новых непрочитанных сообщений. Пелена (1-4 серии из 10) (Валерий Ибрагимов) [2017, детектив, криминал, мелодрама, WEBRip 720p]

8 | 0

4.47 ГБ

В этой теме нет новых непрочитанных сообщений. Пелена (1-4 серии из 10) (Валерий Ибрагимов) [2017, детектив, криминал, мелодрама, WEBRip]

4 | 0

2.73 ГБ

В этой теме нет новых непрочитанных сообщений. Пелена (1-3 серии из 10) (Валерий Ибрагимов) [2017, детектив, криминал, мелодрама, WEBRip-AVC]

0 | 4

1.89 ГБ

В этой теме нет новых непрочитанных сообщений. Пелена (1-2 серии из 10) (Валерий Ибрагимов) [2017, детектив, криминал, мелодрама, WEBRip-AVC]

4 | 8

1.26 ГБ




Вы не можете начинать темы
Вы не можете отвечать на сообщения
Вы не можете редактировать свои сообщения
Вы не можете удалять свои сообщения
Вы не можете добавлять вложения

Перейти:  
 Вход
ppkBB3cker v.2 © 2008-2014 @ PPK
[ Time : 0.071s | 18 Queries | GZIP : Off ]

cron