img image001 image001 image001 image001 image001 image001 image001 image001 image001 image001 image001 image001 image001 image001 image001 image001

Planets Sun Sun Sun
Статистика раздачи
Автор: Снежана | Размер: 16.56 ГБ | Добавлен: 12 июн 2018
Раздают: 4    Качают: 0
Скачать торрент
Скачать торрент
Описание торрента

СообщениеДобавлено: 12 июн 2018 

Пелена (1-6 серии из 10)

Перевод: Не требуется, cубтитры: отсутствуют
Формат: WEBRip 1080p, MKV, H.264, AC3
Страна: Украина
Режиссер: Валерий Ибрагимов
Жанр: детектив, криминал, мелодрама
Всего серий: 10
Продолжительность: 6 х 00:50:00
Год выпуска: 2018

В ролях: Александра Булычёва, Антон Батырев, Андрей Чадов, Валерий Баринов, Игорь Головин, Настя Кербенген, Елизавета Анохина, Владимир Горянский, Ирина Мак, Лев Сомов, Олеся Жураковская, Константин Корецкий, Софья Письман, Алексей Тритенко, Мирослава Филиппович, Ирина Авдеенко, Владимир Гладкий, Сергей Сипливый, Наталия Цыганенко, Владислав Мамчур, Елена Хижная, Наталья Корецкая, Сергей Кучера, Евгений Паперный, Станислав Щёкин

Описание: Оксана – журналистка, специализирующаяся на громких коррупционных делах. Кирилл – следователь по особо тяжким преступлениям, которому эта журналистка изрядно портит жизнь. На первый взгляд, они враги, а на самом деле – супруги на грани развода. Из-за своего расследования Оксана попадает в эпицентр масштабного скандала и окончательно ссорится с мужем. В качестве наказания ей предстоит на пару месяцев залечь на дно, работая корреспондентом местной газеты «Вечерняя Пелена».

Рейтинг и доп. информация:


Видео: 1920x1080 (16:9), 25 fps, AVC MPEG-4 (x264), High@L4 ~ 7460 kbps avg, 0.144 bit/pixel
Аудио: 48 kHz, AC3, 2/0 (L,R) ch, ~192.00 kbps avg
Внимание! Раздача ведётся путём добавления новых серий. При каждом добавлении создаётся новый торрент.
Чтобы начать докачку новой серии, пользователям необходимо сделать следующее:
1. Остановить скачивание.
2. Удалить старый торрент у себя из клиента (старые серии удалять не надо).
3. Скачать новый торрент и запустить его у себя в клиенте вместо старого, при этом указать клиенту путь в старую папку куда и должно происходить скачивание новых серий. Ваш клиент при этом должен произвести хеширование (проверку) старой папки и будет докачивать только те серии, которых у вас ещё нет. Старые серии при этом не удаляются, а продолжают раздаваться! Eсли вы уже удалили старые серии, то предотвратить повторную закачку старых серий можно, отжав галочку в соответствующих местах при запуске нового торрента.


Общее
Уникальный идентификатор : 217273951323378568847063883967983010837 (0xA37570DEC02100AA33F120B45B544415)
Полное имя : C:\Пелена.2017.WEBRip (1080p).by.Nicodem.Files-x\01.Пелена.2017.WEBRip (1080p).by.Nicodem.Files-x.mkv
Формат : Matroska
Версия формата : Version 4 / Version 2
Размер файла : 2,69 Гбайт
Продолжительность : 49 м. 17 с.
Режим общего битрейта : Переменный
Общий поток : 7807 Кбит/сек
Программа кодирования : Lavf56.36.100
Библиотека кодирования : Lavf56.36.100

Видео
Идентификатор : 1
Формат : AVC
Формат/Информация : Advanced Video Codec
Профиль формата : High@L4
Настройки формата : CABAC / 2 Ref Frames
Параметр CABAC формата : Да
Параметр RefFrames формата : 2 кадра
Параметр GOP формата : M=3, N=30
Идентификатор кодека : V_MPEG4/ISO/AVC
Продолжительность : 49 м. 17 с.
Вид битрейта : Переменный
Битрейт : 7460 Кбит/сек
Максимальный битрейт : 8000 Кбит/сек
Ширина : 1920 пикселей
Высота : 1080 пикселей
Соотношение сторон : 16:9
Режим частоты кадров : Постоянный
Частота кадров : 25,000 кадров/сек
Цветовое пространство : YUV
Субдискретизация насыщенности : 4:2:0
Битовая глубина : 8 бит
Тип развёртки : Прогрессивная
Бит/(Пиксели*Кадры) : 0.144
Размер потока : 2,57 Гбайт (96%)
Default : Да
Forced : Нет

Аудио
Идентификатор : 2
Формат : AC-3
Формат/Информация : Audio Coding 3
Идентификатор кодека : A_AC3
Продолжительность : 49 м. 17 с.
Вид битрейта : Постоянный
Битрейт : 192 Кбит/сек
Каналы : 2 канала
Расположение каналов : Front: L R
Частота : 48,0 КГц
Частота кадров : 31,250 кадров/сек (1536 SPF)
Битовая глубина : 16 бит
Метод сжатия : С потерями
Задержка видео : -40 мс.
Размер потока : 67,7 Мбайт (2%)
Язык : unknown
ServiceKind/String : Complete Main
Default : Да
Forced : Нет










   Похожие торренты   Торрент   Размер 
В этой теме нет новых непрочитанных сообщений. Пелена (1-10 серии из 10) (Валерий Ибрагимов) [2018, детектив, криминал, мелодрама, WEBRip 1080p]

21 | 0

28.05 ГБ

В этой теме нет новых непрочитанных сообщений. Пелена (1- серии из 10) (Валерий Ибрагимов) [2017, детектив, криминал, мелодрама, WEBRip]

25 | 4

600.23 МБ

В этой теме нет новых непрочитанных сообщений. Пелена (1- серии из 10) (Валерий Ибрагимов) [2017, детектив, криминал, мелодрама, WEBRip-AVC]

3 | 0

631.99 МБ

В этой теме нет новых непрочитанных сообщений. Пелена (1-10 серии из 10) (Валерий Ибрагимов) [2017, детектив, криминал, мелодрама, WEBRip]

79 | 6

6.93 ГБ

В этой теме нет новых непрочитанных сообщений. Пелена (1-10 серии из 10) (Валерий Ибрагимов) [2017, детектив, криминал, мелодрама, WEBRip-AVC]

41 | 10

6.34 ГБ

В этой теме нет новых непрочитанных сообщений. Пелена (1-2 серии из 10) (Валерий Ибрагимов) [2017, детектив, криминал, мелодрама, WEBRip]

17 | 5

1.37 ГБ

В этой теме нет новых непрочитанных сообщений. Пелена (1-5 серии из 10) (Валерий Ибрагимов) [2017, детектив, криминал, мелодрама, WEBRip-AVC]

31 | 10

3.13 ГБ




Вы не можете начинать темы
Вы не можете отвечать на сообщения
Вы не можете редактировать свои сообщения
Вы не можете удалять свои сообщения
Вы не можете добавлять вложения

Перейти:  
 Вход
ppkBB3cker v.2 © 2008-2014 @ PPK
[ Time : 0.025s | 18 Queries | GZIP : Off ]

cron