img image001 image001 image001 image001 image001 image001 image001 image001 image001 image001 image001 image001 image001 image001 image001 image001

Planets Sun Sun Sun
Статистика раздачи
Автор: PriZraK | Размер: 8.36 ГБ | Добавлен: 20 июн 2018
Раздают: 47    Качают: 0
Скачать торрент
Скачать торрент
Описание торрента

СообщениеДобавлено: 20 июн 2018 

Операция «Мухаббат» (1-9 серии из 9)

Перевод: Не требуется, cубтитры: отсутствуют
Формат: WEBRip 1080i, MKV, AVC, AC3
Страна: Россия, Украина
Режиссер: Олег Фомин
Жанр: драма, триллер, военный, приключения
Всего серий: 9
Продолжительность: 9 x ~ 00:50:00
Год выпуска: 2018

В ролях: Илья Малаков, Сергей Стрельников, Аглая Тарасова, Юлия Погребиньская, Виктория Литвиненко-Ясиновская, Александр Лазарев (мл.), Сергей Пускепалис, Денис Никифоров, Сергей Угрюмов, Максим Лагашкин, Наталия Антонова, Евгения Малахова, Парвиз Пулоди, Али Мухаммад, Сослан Фидаров, Полина Лазарева, Дмитрий Иосифов, Денис Константинов, Рамиль Сабитов, Тимоти Сэлл

Описание:
1984 год. СССР втянут в затянувшийся военный конфликт в Афганистане. В стране перестройка, «холодная война» в самом разгаре. На этом фоне развивается история двух влюбленных - Мити и Ани, которые волей судьбы оказались разлучены. Родители Ани – диссиденты – вынуждены были вместе с дочерью эмигрировать в Америку. Митя остается в СССР. Его отец – генерал разведки, советник генсека, активно выступает за вывод войск из Афганистана. США хотят продолжения войны и развала СССР, потому они намерены дискредитировать генерала. Любовь Мити и Ани им на руку, молодых людей можно использовать в большой игре. Разрабатывается операция под названием «Мухаббат» – американский агент по имени Джейн организует встречу ничего не подозревающих влюбленных в Кабуле. Оказавшись в Афганистане, они попадают в эпицентр опасных событий.

Рейтинг и доп. информация:


Видео: 1920x860i (2,25:1), 25.000 fps, AVC, ~2299 kbps avg, 0.056 bit/pixel
Аудио: 48 kHz, АС3, 2 ch, (Front: L R) ~192.00 kbps avg

Доп. информация:
Релиз от: Алехаndr

Общее
Уникальный идентификатор : 334714237268680647538560207659515237442 (0xFBCF9E033BEEB3EDC084B0212863D442)
Полное имя : D:\Операция Мухаббат (2017).by.Алехаndr\Серия 1.by.Алехаndr.mkv
Формат : Matroska
Версия формата : Version 4 / Version 2
Размер файла : 908 Мбайт
Продолжительность : 50 м. 56 с.
Общий поток : 2493 Кбит/сек
Дата кодирования : UTC 2018-04-24 06:54:33
Программа кодирования : mkvmerge v22.0.0 ('At The End Of The World') 64-bit
Библиотека кодирования : libebml v1.3.5 + libmatroska v1.4.8 / Lavf57.71.100

Видео
Идентификатор : 1
Формат : AVC
Формат/Информация : Advanced Video Codec
Профиль формата : Main@L4
Настройки формата : CABAC / 1 Ref Frames
Параметр CABAC формата : Да
Параметр RefFrames формата : 1 кадр
Идентификатор кодека : V_MPEG4/ISO/AVC
Продолжительность : 50 м. 56 с.
Битрейт : 2299 Кбит/сек
Ширина : 1920 пикселей
Высота : 860 пикселей
Соотношение сторон : 2,25:1
Режим частоты кадров : Постоянный
Частота кадров : 25,000 кадров/сек
Цветовое пространство : YUV
Субдискретизация насыщенности : 4:2:0
Битовая глубина : 8 бит
Тип развёртки : Прогрессивная
Бит/(Пиксели*Кадры) : 0.056
Размер потока : 837 Мбайт (92%)
Default : Да
Forced : Нет

Аудио
Идентификатор : 2
Формат : AC-3
Формат/Информация : Audio Coding 3
Идентификатор кодека : A_AC3
Продолжительность : 50 м. 56 с.
Вид битрейта : Постоянный
Битрейт : 192 Кбит/сек
Каналы : 2 канала
Расположение каналов : Front: L R
Частота : 44,1 КГц
Частота кадров : 28,711 кадров/сек (1536 SPF)
Битовая глубина : 16 бит
Метод сжатия : С потерями
Размер потока : 70,0 Мбайт (8%)
ServiceKind/String : Complete Main
Default : Да
Forced : Нет








   Похожие торренты   Торрент   Размер 
В этой теме нет новых непрочитанных сообщений. Операция «Мухаббат» (1-9 серии из 9) (Олег Фомин) [2018, драма, мелодрама, триллер, военный, приключения, SATRip]

146 | 16

6.19 ГБ

В этой теме нет новых непрочитанных сообщений. Операция «Мухаббат» (1-9 серии из 9) (Олег Фомин) [2018, драма, мелодрама, триллер, военный, приключения, WEB-DLRip-AVC]

22 | 2

5.85 ГБ

В этой теме нет новых непрочитанных сообщений. Операция «Мухаббат» (1-7 серии из 9) (Олег Фомин) [2018, драма, мелодрама, триллер, военный, приключения, WEB-DLRip-AVC]

2 | 0

3.84 ГБ

В этой теме нет новых непрочитанных сообщений. Операция «Мухаббат» (1-9 серии из 9) (Олег Фомин) [2018, драма, мелодрама, триллер, военный, приключения, HDTVRip-AVC]

52 | 4

7.76 ГБ

В этой теме нет новых непрочитанных сообщений. Операция «Мухаббат» (1-7 серии из 9) (Олег Фомин) [2018, драма, мелодрама, триллер, военный, приключения, SATRip]

42 | 8

4.72 ГБ

В этой теме нет новых непрочитанных сообщений. Операция «Мухаббат» (1-3 серия из 9) (Олег Фомин) [2018, драма, мелодрама, триллер, военный, приключения, WEB-DLRip]

8 | 0

1.87 ГБ

В этой теме нет новых непрочитанных сообщений. Операция «Мухаббат» (1-9 серия из 9) (Олег Фомин) [2018, драма, мелодрама, триллер, военный, приключения, WEB-DLRip]

150 | 5

5.69 ГБ




Вы не можете начинать темы
Вы не можете отвечать на сообщения
Вы не можете редактировать свои сообщения
Вы не можете удалять свои сообщения
Вы не можете добавлять вложения

Перейти:  
 Вход
ppkBB3cker v.2 © 2008-2014 @ PPK
[ Time : 1.795s | 18 Queries | GZIP : Off ]

cron