img image001 image001 image001 image001 image001 image001 image001 image001 image001 image001 image001 image001 image001 image001 image001 image001

Planets Sun Sun Sun
Статистика раздачи
Автор: PriZraK | Размер: 9.43 ГБ | Добавлен: 20 июн 2018
Раздают: 23    Качают: 5
Скачать торрент
Скачать торрент
Описание торрента

СообщениеДобавлено: 20 июн 2018 

Как я стал русским (1-20 серии из 20)

Перевод: Не требуется, cубтитры: отсутствуют
Формат: WEB-DL, MKV, H.264, AC3
Страна: Россия
Режиссер: Константин Статский
Жанр: комедия
Всего серий: 20
Продолжительность: 20 x ~ 00:25:00
Год выпуска: 2015

В ролях: Матеуш Даменцкий, Сергей Чирков, Светлана Иванова, Александра Урсуляк, Анастасия Стежко, Виталий Хаев, Денис Пьянов, Никита Панфилов, Елизавета Кононова, Александра Кузенкина, Артем Лысков, Анастасия Акатова, Марина Маняхина, Татьяна Рыбинец, Александр Обласов, Владислав Дунаев

Описание:
Сотрудник газеты American Post Алекс Уилсон отправляется в долгосрочную командировку в Россию, где ему предстоит не только ежедневно изучать удивительную российскую действительность, но и постепенно постигать загадочную русскую душу. Помимо выполнения редакционных заданий, Алекс заводит личный блог, где каждый день будет пытаться ответить на вопрос «что значит быть русским?» и размышлять — зачем в каждом доме есть пакет с пакетами? Для чего хранить ненужные вещи на балконе? Почему нельзя свистеть в помещении и обязательно нужно наступить кому-то на ногу, чтобы избежать ссоры?

Рейтинг и доп. информация:


Видео: 1280x720 (16:9), 25.00 fps, AVC H264, ~2500 kbps avg, ~0.109 bit/pixel
Аудио: 48 kHz, АС3, 2 ch, (Front: L R) ~256.00 kbps avg

Общее
Уникальный идентификатор : 215024420967216312190502010049080043583 (0xA1C43275E6B2139D8315A439984FA83F)
Полное имя : E:\DOWNLOADS\Как я стал русским (2015) WEB-DLRip 720\Как я стал русским - 01 серия.mkv
Формат : Matroska
Версия формата : Version 2
Размер файла : 540 Мбайт
Продолжительность : 27 м.
Общий поток : 2746 Кбит/сек
Дата кодирования : UTC 2015-11-02 18:39:57
Программа кодирования : mkvmerge v7.8.0 ('River Man') 32bit built on Apr 3 2015 12:11:22
Библиотека кодирования : libebml v1.3.1 + libmatroska v1.4.2

Видео
Идентификатор : 1
Формат : AVC
Формат/Информация : Advanced Video Codec
Профиль формата :
Параметр CABAC формата : Да
Параметр ReFrames формата : 4 кадра
Идентификатор кодека : V_MPEG4/ISO/AVC
Продолжительность : 27 м.
Битрейт : 2500 Кбит/сек
Ширина : 1280 пикселей
Высота : 720 пикселей
Соотношение сторон : 16:9
Режим частоты кадров : Постоянный
Частота кадров : 25,000 кадров/сек
Цветовое пространство : YUV
Субдискретизация насыщенности : 4:2:0
Битовая глубина : 8 бит
Тип развёртки : Прогрессивная
Бит/(Пиксели*Кадры) : 0.109
Размер потока : 479 Мбайт (89%)
Библиотека кодирования : x264 core 140
Настройки программы : cabac=1 / ref=3 / deblock=1:0:0 / analyse=0x3:0x113 / me=hex / subme=7 / psy=1 / psy_rd=1.00:0.00 / mixed_ref=1 / me_range=16 / chroma_me=1 / trellis=1 / 8x8dct=1 / cqm=0 / deadzone=21,11 / fast_pskip=1 / chroma_qp_offset=-2 / threads=24 / lookahead_threads=4 / sliced_threads=0 / nr=0 / decimate=1 / interlaced=0 / bluray_compat=0 / constrained_intra=0 / bframes=3 / b_pyramid=2 / b_adapt=1 / b_bias=0 / direct=1 / weightb=1 / open_gop=0 / weightp=2 / keyint=250 / keyint_min=25 / scenecut=40 / intra_refresh=0 / rc_lookahead=40 / rc=abr / mbtree=1 / bitrate=2500 / ratetol=1.0 / qcomp=0.60 / qpmin=0 / qpmax=69 / qpstep=4 / vbv_maxrate=5000 / vbv_bufsize=10000 / nal_hrd=none / filler=0 / ip_ratio=1.40 / aq=1:1.00
Язык : English
Default : Да
Forced : Нет

Аудио
Идентификатор : 2
Формат : AC-3
Формат/Информация : Audio Coding 3
Расширение режима : CM (complete main)
Параметр Endianness формата : Big
Идентификатор кодека : A_AC3
Продолжительность : 27 м.
Вид битрейта : Постоянный
Битрейт : 256 Кбит/сек
Каналы : 2 канала
Расположение каналов : Front: L R
Частота : 48,0 КГц
Метод сжатия : С потерями
Размер потока : 50,3 Мбайт (9%)
Default : Да
Forced : Нет








   Похожие торренты   Торрент   Размер 
В этой теме нет новых непрочитанных сообщений. Троцкий (1-8 серии из 8) (Александр Котт, Константин Статский) [2017, биография, история, WEB-DL 720p]

21 | 4

11.92 ГБ

В этой теме нет новых непрочитанных сообщений. Как я стал русским [01x01-20 из 20] (2015) DVB

838 | 359

12.32 ГБ

В этой теме нет новых непрочитанных сообщений. Как я стал русским [01x01-19 из 20] (2015) DVB

44 | 8

11.71 ГБ

В этой теме нет новых непрочитанных сообщений. Как я стал русским [01x01-17 из 20] (2015) DVB

1 | 7

9.88 ГБ

В этой теме нет новых непрочитанных сообщений. Как я стал русским [01-09 из 20] (2015) WEB-DLRip-AVC от Files-x

40 | 198

2.77 ГБ

В этой теме нет новых непрочитанных сообщений. Как я стал русским [01x01-04 из 20] (2015) SATRip

233 | 70

1.4 ГБ

В этой теме нет новых непрочитанных сообщений. Как я стал русским [01-03 из 20] (2015) WEB-DLRip-AVC от Files-x

72 | 18

970.99 МБ




Вы не можете начинать темы
Вы не можете отвечать на сообщения
Вы не можете редактировать свои сообщения
Вы не можете удалять свои сообщения
Вы не можете добавлять вложения

Перейти:  
 Вход
ppkBB3cker v.2 © 2008-2014 @ PPK
[ Time : 0.034s | 16 Queries | GZIP : Off ]

cron