img image001 image001 image001 image001 image001 image001 image001 image001 image001 image001 image001 image001 image001 image001 image001 image001

Planets Sun Sun Sun
Статистика раздачи
Автор: PriZraK | Размер: 9.37 ГБ | Добавлен: 20 июн 2018
Раздают: 11    Качают: 4
Скачать торрент
Скачать торрент
Описание торрента

СообщениеДобавлено: 20 июн 2018 

Тихий Дон (1-14 серии из 14)

Перевод: Не требуется
Субтитры: отсутствуют
Формат: HDTVRip-AVC, MKV, H.264, AC3
Страна: Россия
Режиссер: Сергей Урсуляк
Жанр: драма, экранизация
Всего серий: 14
Продолжительность: 14 х ~ 00:45:00
Год выпуска: 2015

В ролях: Евгений Ткачук, Полина Чернышова, Сергей Маковецкий, Людмила Зайцева, Дарья Урсуляк, Никита Ефремов, Анастасия Веденская, Артур Иванов, Надежда Лумпова, Александр Яценко, Александр Завьялов, Наталья Савченко, Константин Желдин, Александр Горбатов (II), Антон Кузнецов, Сергей Сотников, Тимофей Трибунцев, Захар Соколов, Виталия Корниенко, Иван Федотов, Роман Данилин, Александр Матросов, Сергей Миллер, Константин Белошапка, Николай Клямчук, Валерий Жуков, Пётр Воробьёв, Николай Наркевич, Николай Чупров, Александр Казаков (II), Владимир Подоляк, Михаил Стрелков, Игорь Данюшин, Николай Смирнов (X), Владимир Костин (III), Александр Дубина, Юлия Сулес, Ирина Латушко, Нина Андронаки, Юлия Полынская, Полина Пушкарук, Анатолий Худолеев, Олег Есауленко, Константин Воробьёв, Сергей Зубенко, Тимур Любимский, Михаил Пахоменко, Владимир Давиденко, Александр Потапов, Альбина Тиханова, Станислав Рядинский, Валерий Малинин, Дмитрий Быковский-Ромашов, Максим Мальцев, Надежда Бадакова, Анастасия Васильева, Тагир Рахимов, Сергей Качанов

Описание: Экранизация одноименного романа Михаила Шолохова. Фильм охватывает события Первой мировой войны, Октябрьской революции и Гражданской войны. Действие начинается в 1912 году. Герои картины – соседи, станичники, казаки с хутора Татарский станицы Вешенской - живут на этой земле испокон веков, они связаны родством, дружбой, любовью, общим трудом и военной службой. Но этот прочный и самодостаточный мир со своим неповторимым жизненным укладом, привычками и особой системой взглядов и ценностей рушится под натиском кровавой смуты и революции. Дон разделен ненавистью. Казавшиеся незыблемыми вековые основы донской жизни – земля, хутор, семья, воинский долг растворяются в горниле братоубийственной войны. Семьи Мелеховых, Коршуновых, Астаховых, вовлечены в круговорот военных и политических событий.

Рейтинг и доп. информация:


Видео: 1024x576 (16:9), 25.000 fps, MPEG4 AVC (х264) , ~ 2000 kbps avg, 0.136 bit/pixel
Аудио: 48 kHz, AC3, 2 ch, ~ 192 kbps avg
Общее
Уникальный идентификатор : 190034789206801985243167871184219028953 (0x8EF75E7D6503F55581A53D8409F23DD9)
Полное имя : Тихий дон.2015.HDTVRip.(AVC).\01.Тихий дон.2015.HDTVRip.(AVC).mkv
Формат : Matroska
Версия формата : Version 2
Размер файла : 700 Мбайт
Продолжительность : 44 м.
Общий поток : 2194 Кбит/сек
Дата кодирования : UTC 2015-11-30 03:09:53
Программа кодирования : mkvmerge v6.1.0 ('Old Devil') built on Mar 4 2013 09:10:42
Библиотека кодирования : libebml v1.3.0 + libmatroska v1.4.0

Видео
Идентификатор : 1
Формат : AVC
Формат/Информация : Advanced Video Codec
Профиль формата :
Параметр CABAC формата : Да
Параметр ReFrames формата : 9 кадров
Идентификатор кодека : V_MPEG4/ISO/AVC
Продолжительность : 44 м.
Битрейт : 2000 Кбит/сек
Ширина : 1024 пикселя
Высота : 576 пикселей
Соотношение сторон : 16:9
Режим частоты кадров : Постоянный
Частота кадров : 25,000 кадров/сек
Цветовое пространство : YUV
Субдискретизация насыщенности : 4:2:0
Битовая глубина : 8 бит
Тип развёртки : Прогрессивная
Бит/(Пиксели*Кадры) : 0.136
Размер потока : 625 Мбайт (89%)
Библиотека кодирования : x264 core 130 r2273 b3065e6
Настройки программы : cabac=1 / ref=9 / deblock=1:-3:-1 / analyse=0x3:0x133 / me=umh / subme=9 / psy=1 / psy_rd=1.00:0.15 / mixed_ref=1 / me_range=32 / chroma_me=1 / trellis=2 / 8x8dct=1 / cqm=0 / deadzone=21,11 / fast_pskip=0 / chroma_qp_offset=-3 / threads=6 / lookahead_threads=1 / sliced_threads=0 / nr=0 / decimate=1 / interlaced=0 / bluray_compat=0 / constrained_intra=0 / bframes=9 / b_pyramid=2 / b_adapt=2 / b_bias=0 / direct=1 / weightb=1 / open_gop=0 / weightp=2 / keyint=250 / keyint_min=25 / scenecut=40 / intra_refresh=0 / rc=2pass / mbtree=0 / bitrate=2000 / ratetol=1.0 / qcomp=0.60 / qpmin=0 / qpmax=69 / qpstep=4 / cplxblur=20.0 / qblur=0.5 / ip_ratio=1.40 / pb_ratio=1.30 / aq=2:1.00
Default : Да
Forced : Нет
Цветовой диапазон : Limited
Основные цвета : BT.709
Характеристики трансфера : BT.709
Коэффициенты матрицы : BT.709

Аудио
Идентификатор : 2
Формат : AC-3
Формат/Информация : Audio Coding 3
Расширение режима : CM (complete main)
Параметр Endianness формата : Big
Идентификатор кодека : A_AC3
Продолжительность : 44 м.
Вид битрейта : Постоянный
Битрейт : 192 Кбит/сек
Каналы : 2 канала
Расположение каналов : Front: L R
Частота : 48,0 КГц
Метод сжатия : С потерями
Размер потока : 61,3 Мбайт (9%)
Default : Да
Forced : Нет















   Похожие торренты   Торрент   Размер 
В этой теме нет новых непрочитанных сообщений. Ликвидация (1-14 серии из 14) (Сергей Урсуляк) [2007, детектив, криминал, триллер, драма, военный, история, WEB-DL 720p]

3 | 0

24.23 ГБ

В этой теме нет новых непрочитанных сообщений. Ликвидация (1-14 серии из 14) (Сергей Урсуляк) [2007, детектив, криминал, триллер, драма, военный, история, WEB-DLRip-AVC]

5 | 0

17.64 ГБ

В этой теме нет новых непрочитанных сообщений. Чужое лицо (1-8 серии из 8) (Сергей Басин) [2011, драма, мелодрама, шпионский фильм, экранизация, WEBRip-AVC]

4 | 4

4.39 ГБ

В этой теме нет новых непрочитанных сообщений. Провинциальная Мадонна (1-2 серии из 2) (Сергей Мезенцев) [2017, мелодрама, экранизация, SATRip]

43 | 9

2.74 ГБ

В этой теме нет новых непрочитанных сообщений. Стоматолог (1-4 серии из 24) (Александр Тименко, Сергей Толкушкин) [2018, мелодрама, экранизация, WEB-DLRip]

0 | 0

2.34 ГБ

В этой теме нет новых непрочитанных сообщений. Стоматолог (1-5 серии из 24) (Александр Тименко, Сергей Толкушкин) [2018, мелодрама, экранизация, WEB-DLRip-AVC]

7 | 0

2.98 ГБ

В этой теме нет новых непрочитанных сообщений. Стоматолог (1-6 серии из 24) (Александр Тименко, Сергей Толкушкин) [2018, мелодрама, экранизация, WEB-DLRip-AVC]

0 | 0

3.57 ГБ




Вы не можете начинать темы
Вы не можете отвечать на сообщения
Вы не можете редактировать свои сообщения
Вы не можете удалять свои сообщения
Вы не можете добавлять вложения

Перейти:  
cron
 Вход
ppkBB3cker v.2 © 2008-2014 @ PPK
[ Time : 0.033s | 18 Queries | GZIP : Off ]

cron