img image001 image001 image001 image001 image001 image001 image001 image001 image001 image001 image001 image001 image001 image001 image001 image001

Planets Sun Sun Sun
Статистика раздачи
Автор: PriZraK | Размер: 8.55 ГБ | Добавлен: 20 июн 2018
Раздают: 6    Качают: 4
Скачать торрент
Скачать торрент
Описание торрента

СообщениеДобавлено: 20 июн 2018 

Я работаю в суде (1-12 серии из 20)

Перевод: Не требуется, cубтитры: отсутствуют
Формат: HDTVRip-AVC, MKV, H.264, AC3
Страна: Россия
Режиссер: Сергей Полторанин
Жанр: детектив, мелодрама
Всего серий: 20
Продолжительность: 12 х ~ 00:48:00
Год выпуска: 2016

В ролях: Павел Полубабкин, Мария Савина, Дмитрий Лысенко, Ольга Новосад, Илья Дудочкин, Мария Бурыкина, Максим Микрюков, Рамиля Бакирова, Игорь Стаценко

Описание: Сериал "Я работаю в суде" расскажет истории о тех, чья профессия заключается в установлении истины и вынесении справедливого приговора. По сюжету сериала "Я работаю в суде" обычный районный суд, становится местом где разворачиваются драматические истории, а также разумеется присутствует любовная линия. В соответствии с программой «омоложения», бывшего выпускника юрфака Николая Ершова (роль исполняет Павел Полубабкин) назначают судьей в районный суд города. Некоторые сотрудники учреждения недоумевают, ведь у молодого человека нет за плечами опыта работы, однако парень обладает блестящими теоретическими знаниями, а также аналитическим складом ума и настоящим бескорыстием. По указанию своего начальника Ершову необходимо прежде всего наладить рабочие отношения с другими служащими - судьей Красновой (роль исполняет Мария Бурыкина), а также со своей помощницей Машей (роль исполняет Мария Савина), которая оказалась в районном суде по протекции свыше. Более того молодая сотрудница канцелярии Жанна (Ольга Новосад) решает влюбить в себя Николая и выйти за него замуж. Не все работники суда преследуют главную цель - вершить правосудие и только Антонина (Рамиля Бакирова), которая работает ассистенткой у Красновой, видит в Ершове честного человека. Она помогает ему разобраться в тонкостях профессии, так как для нее также прежде всего судьба человека. Сможет ли молодой неопытный сотрудник суда стать принципиальным, честным и не предвзятым профессионалом своего дела? И что нужно чтобы справедливость правосудия была превыше всего? На все эти вопросы и ответит новый проект НТВ "Я работаю в суде".

Рейтинг и доп. информация: отсутствуют

Видео: 1024x576 (16:9), 25.000 fps, MPEG4 AVC (х264) , ~ 2000 kbps avg, 0.136 bit/pixel
Аудио: 48 kHz, AC3, 2/0 (L,R) ch, ~192 kbps
Внимание! Раздача ведётся путём добавления новых серий. При каждом добавлении создаётся новый торрент.
Чтобы начать докачку новой серии, пользователям необходимо сделать следующее:
1. Остановить скачивание.
2. Удалить старый торрент у себя из клиента (старые серии удалять не надо).
3. Скачать новый торрент и запустить его у себя в клиенте вместо старого, при этом указать клиенту путь в старую папку куда и должно происходить скачивание новых серий. Ваш клиент при этом должен произвести хеширование (проверку) старой папки и будет докачивать только те серии, которых у вас ещё нет. Старые серии при этом не удаляются, а продолжают раздаваться! Eсли вы уже удалили старые серии, то предотвратить повторную закачку старых серий можно, отжав галочку в соответствующих местах при запуске нового торрента.


Общее
Уникальный идентификатор : 213924983896576785204549922143380282298 (0xA0F0740722FEF76183FC94E9A69D9BBA)
Полное имя : C:\Я работаю в суде.(2016).HDTVRip.(AVC).\01.Ja.rabotaju.v.sude.(2016).HDTVRip.AVC.mkv
Формат : Matroska
Версия формата : Version 2
Размер файла : 742 Мбайт
Продолжительность : 47 м.
Общий поток : 2193 Кбит/сек
Дата кодирования : UTC 2016-08-29 17:05:18
Программа кодирования : mkvmerge v6.1.0 ('Old Devil') built on Mar 4 2013 09:10:42
Библиотека кодирования : libebml v1.3.0 + libmatroska v1.4.0

Видео
Идентификатор : 1
Формат : AVC
Формат/Информация : Advanced Video Codec
Профиль формата :
Параметр CABAC формата : Да
Параметр ReFrames формата : 9 кадров
Идентификатор кодека : V_MPEG4/ISO/AVC
Продолжительность : 47 м.
Битрейт : 2000 Кбит/сек
Ширина : 1024 пикселя
Высота : 576 пикселей
Соотношение сторон : 16:9
Режим частоты кадров : Постоянный
Частота кадров : 25,000 кадров/сек
Цветовое пространство : YUV
Субдискретизация насыщенности : 4:2:0
Битовая глубина : 8 бит
Тип развёртки : Прогрессивная
Бит/(Пиксели*Кадры) : 0.136
Размер потока : 663 Мбайт (89%)
Библиотека кодирования : x264 core 130 r2273 b3065e6
Настройки программы : cabac=1 / ref=9 / deblock=1:-2:-1 / analyse=0x3:0x133 / me=umh / subme=9 / psy=1 / psy_rd=1.00:0.15 / mixed_ref=1 / me_range=32 / chroma_me=1 / trellis=2 / 8x8dct=1 / cqm=0 / deadzone=21,11 / fast_pskip=0 / chroma_qp_offset=-3 / threads=6 / lookahead_threads=1 / sliced_threads=0 / nr=0 / decimate=1 / interlaced=fake / bluray_compat=0 / constrained_intra=0 / bframes=9 / b_pyramid=2 / b_adapt=2 / b_bias=0 / direct=1 / weightb=1 / open_gop=0 / weightp=2 / keyint=250 / keyint_min=25 / scenecut=40 / intra_refresh=0 / rc=2pass / mbtree=0 / bitrate=2000 / ratetol=1.0 / qcomp=0.60 / qpmin=0 / qpmax=69 / qpstep=4 / cplxblur=20.0 / qblur=0.5 / ip_ratio=1.40 / pb_ratio=1.30 / aq=2:1.00
Default : Да
Forced : Нет
Цветовой диапазон : Limited
Основные цвета : BT.709
Характеристики трансфера : BT.709
Коэффициенты матрицы : BT.709

Аудио
Идентификатор : 2
Формат : AC-3
Формат/Информация : Audio Coding 3
Расширение режима : CM (complete main)
Параметр Endianness формата : Big
Идентификатор кодека : A_AC3
Продолжительность : 47 м.
Вид битрейта : Постоянный
Битрейт : 192 Кбит/сек
Каналы : 2 канала
Расположение каналов : Front: L R
Частота : 48,0 КГц
Метод сжатия : С потерями
Размер потока : 65,0 Мбайт (9%)
Default : Да
Forced : Нет











   Похожие торренты   Торрент   Размер 
В этой теме нет новых непрочитанных сообщений. Я работаю в суде (1-20 серии из 20) (Сергей Полторанин) [2016, детектив, мелодрама, HDTVRip]

29 | 1

11.58 ГБ

В этой теме нет новых непрочитанных сообщений. Я работаю в суде (1-18 серии из 20) (Сергей Полторанин) [2016, детектив, мелодрама, HDTVRip-AVC]

4 | 0

12.9 ГБ

В этой теме нет новых непрочитанных сообщений. Я работаю в суде (1-14 серии из 20) (Сергей Полторанин) [2016, детектив, мелодрама, HDTVRip-AVC]

6 | 2

9.99 ГБ

В этой теме нет новых непрочитанных сообщений. Я работаю в суде (1-20 серии из 20) (Сергей Полторанин) [2016, детектив, мелодрама, HDTVRip-AVC]

13 | 4

14.35 ГБ

В этой теме нет новых непрочитанных сообщений. Я работаю в суде (1-15 серии из 20) (Сергей Полторанин) [2016, детектив, мелодрама, HDTVRip]

0 | 4

8.64 ГБ

В этой теме нет новых непрочитанных сообщений. Я работаю в суде (1-13 серии из 20) (Сергей Полторанин) [2016, детектив, мелодрама, HDTVRip]

5 | 2

7.47 ГБ

В этой теме нет новых непрочитанных сообщений. Я работаю в суде (1-15 серии из 20) (Сергей Полторанин) [2016, детектив, мелодрама, HDTVRip-AVC]

11 | 0

10.71 ГБ




Вы не можете начинать темы
Вы не можете отвечать на сообщения
Вы не можете редактировать свои сообщения
Вы не можете удалять свои сообщения
Вы не можете добавлять вложения

Перейти:  
 Вход
ppkBB3cker v.2 © 2008-2014 @ PPK
[ Time : 0.312s | 17 Queries | GZIP : Off ]

cron