img image001 image001 image001 image001 image001 image001 image001 image001 image001 image001 image001 image001 image001 image001 image001 image001

Planets Sun Sun Sun
Статистика раздачи
Автор: Снежана | Размер: 3.61 ГБ | Добавлен: 21 июн 2018
Раздают: 8    Качают: 3
Скачать торрент
Скачать торрент
Описание торрента

СообщениеДобавлено: 21 июн 2018 

Садовое кольцо (1-3 серии из 12)

Перевод: Не требуется, cубтитры: отсутствуют
Формат: WEB-DL 720p, MKV, H.264, AC3
Страна: Россия
Режиссер: Алексей Смирнов (VII)
Жанр: детектив, мелодрама
Всего серий: 12
Продолжительность: 3 х ~ 00:50:00
Год выпуска: 2017

В ролях: Мария Миронова (II), Анатолий Белый, Евгения Брик, Петар Зекавица, Ирина Розанова, Илья Мирошников, Мария Голубкина, Максим Виторган, Юлия Ауг, Фёдор Лавров, Александра Ребенок, Виктор Грудев, Ксения Щербакова, Николай Шрайбер, Авдотья Смирнова, Данил Стеклов, Константин Чепурин, Руслан Аскеров, Марина Васильева (II), Евгения Калинец, Виктория Корлякова, Дмитрий Горевой, Анастасия Клюева, Дмитрий Фрид, Альбрехт Цандер

Описание: Вере Смолиной можно только позавидовать. У нее идеальная семья. В ее доме царит любовь, согласие и счастье. Пока в один прекрасный день не исчезает ее сын Илья. Казалось бы, что могло случиться в безоблачной вселенной Веры? Пытаясь понять, что произошло с Ильей, не смотря на неверие в нее окружающих, Вера начинает свое собственное расследование. И обнаруживает, что привычный мир, который окружает ее – совсем не таков, каким казался ей многие годы.

Рейтинг и доп. информация:


Видео: 1280x720 (16:9), 25 fps, AVC MPEG-4 (x264), ~ 3200 kbps avg, 0.139 bit/pixel
Аудио: 48 kHz, AC3, 2/0 (L,R) ch, ~192.00 kbps avg
Внимание! Раздача ведётся путём добавления новых серий. При каждом добавлении создаётся новый торрент.
Чтобы начать докачку новой серии, пользователям необходимо сделать следующее:
1. Остановить скачивание.
2. Удалить старый торрент у себя из клиента (старые серии удалять не надо).
3. Скачать новый торрент и запустить его у себя в клиенте вместо старого, при этом указать клиенту путь в старую папку куда и должно происходить скачивание новых серий. Ваш клиент при этом должен произвести хеширование (проверку) старой папки и будет докачивать только те серии, которых у вас ещё нет. Старые серии при этом не удаляются, а продолжают раздаваться! Eсли вы уже удалили старые серии, то предотвратить повторную закачку старых серий можно, отжав галочку в соответствующих местах при запуске нового торрента.


Общее
Уникальный идентификатор : 222643235013873900016262278126637422821 (0xA77F86FEA14BE964A3177CE6BC5418E5)
Полное имя : C:\01.Sadovoe.kolco.2017..WEB-DL 720p. Files-x .mkv
Формат : Matroska
Версия формата : Version 2
Размер файла : 1,18 Гбайт
Продолжительность : 51 м. 2 с.
Режим общего битрейта : Постоянный
Общий поток : 3311 Кбит/сек
Дата кодирования : UTC 2018-06-18 21:15:11
Программа кодирования : mkvmerge v7.8.0 ('River Man') 32bit built on Apr 3 2015 12:11:22
Библиотека кодирования : libebml v1.3.1 + libmatroska v1.4.2

Видео
Идентификатор : 1
Формат : AVC
Формат/Информация : Advanced Video Codec
Профиль формата :
Настройки формата : CABAC / 4 Ref Frames
Параметр CABAC формата : Да
Параметр RefFrames формата : 4 кадра
Идентификатор кодека : V_MPEG4/ISO/AVC
Продолжительность : 51 м. 2 с.
Вид битрейта : Постоянный
Битрейт : 3200 Кбит/сек / 3200 Кбит/сек
Ширина : 1280 пикселей
Высота : 720 пикселей
Соотношение сторон : 16:9
Режим частоты кадров : Постоянный
Частота кадров : 25,000 кадров/сек
Цветовое пространство : YUV
Субдискретизация насыщенности : 4:2:0
Битовая глубина : 8 бит
Тип развёртки : Прогрессивная
Бит/(Пиксели*Кадры) : 0.139
Размер потока : 1,09 Гбайт (92%)
Библиотека кодирования : x264 core 148
Настройки программы : cabac=1 / ref=2 / deblock=1:0:0 / analyse=0x3:0x113 / me=hex / subme=6 / psy=1 / psy_rd=1.00:0.00 / mixed_ref=1 / me_range=16 / chroma_me=1 / trellis=1 / 8x8dct=1 / cqm=0 / deadzone=21,11 / fast_pskip=1 / chroma_qp_offset=-2 / threads=1 / lookahead_threads=1 / sliced_threads=0 / nr=0 / decimate=1 / interlaced=0 / bluray_compat=0 / constrained_intra=0 / bframes=3 / b_pyramid=2 / b_adapt=1 / b_bias=0 / direct=1 / weightb=1 / open_gop=0 / weightp=1 / keyint=250 / keyint_min=25 / scenecut=0 / intra_refresh=0 / rc_lookahead=30 / rc=cbr / mbtree=1 / bitrate=3200 / ratetol=1.0 / qcomp=0.60 / qpmin=0 / qpmax=69 / qpstep=4 / vbv_maxrate=3200 / vbv_bufsize=1600 / nal_hrd=cbr / filler=1 / ip_ratio=1.40 / aq=1:1.00
Default : Да
Forced : Нет

Аудио
Идентификатор : 2
Формат : AC-3
Формат/Информация : Audio Coding 3
Идентификатор кодека : A_AC3
Продолжительность : 51 м. 2 с.
Вид битрейта : Постоянный
Битрейт : 192 Кбит/сек
Каналы : 2 канала
Расположение каналов : Front: L R
Частота : 48,0 КГц
Частота кадров : 31,250 кадров/сек (1536 SPF)
Битовая глубина : 16 бит
Метод сжатия : С потерями
Задержка видео : -61 мс.
Размер потока : 70,1 Мбайт (6%)
ServiceKind/String : Complete Main
Default : Да
Forced : Нет








   Похожие торренты   Торрент   Размер 
В этой теме нет новых непрочитанных сообщений. Садовое кольцо (1-4 серии из 12) (Алексей Смирнов (VII)) [2017, детектив, мелодрама, WEB-DL 720p]

10 | 3

4.86 ГБ

В этой теме нет новых непрочитанных сообщений. Садовое кольцо (1-12 серии из 12) (Алексей Смирнов (VII)) [2017, детектив, мелодрама, WEB-DL 720p]

68 | 32

14.64 ГБ

В этой теме нет новых непрочитанных сообщений. Садовое кольцо (1-2 серии из 12) (Алексей Смирнов (VII)) [2017, детектив, мелодрама, WEB-DL 720p]

47 | 4

2.4 ГБ

В этой теме нет новых непрочитанных сообщений. Садовое кольцо (1-2 серии из 12) (Алексей Смирнов (VII)) [2017, детектив, мелодрама, HDTVRip 720p]

23 | 19

2.64 ГБ

В этой теме нет новых непрочитанных сообщений. Садовое кольцо (1-4 серии из 12) (Алексей Смирнов (VII)) [2017, детектив, мелодрама, HDTVRip 720p]

15 | 12

5.35 ГБ

В этой теме нет новых непрочитанных сообщений. Садовое кольцо (1-12 серии из 12) (Алексей Смирнов (VII)) [2017, детектив, мелодрама, HDTVRip 720p]

38 | 2

16.12 ГБ

В этой теме нет новых непрочитанных сообщений. Садовое кольцо (1-11 серии из 12) (Алексей Смирнов (VII)) [2017, детектив, мелодрама, WEB-DLRip]

27 | 10

6.93 ГБ




Вы не можете начинать темы
Вы не можете отвечать на сообщения
Вы не можете редактировать свои сообщения
Вы не можете удалять свои сообщения
Вы не можете добавлять вложения

Перейти:  
 Вход
ppkBB3cker v.2 © 2008-2014 @ PPK
[ Time : 0.032s | 16 Queries | GZIP : Off ]

cron