img image001 image001 image001 image001 image001 image001 image001 image001 image001 image001 image001 image001 image001 image001 image001 image001

Planets Sun Sun Sun
Статистика раздачи
Автор: Снежана | Размер: 24.94 ГБ | Добавлен: 22 июн 2018
Раздают: 23    Качают: 0
Скачать торрент
Скачать торрент
Описание торрента

СообщениеДобавлено: 22 июн 2018 

Пять минут тишины (2 сезон: 1-12 серии из 24) Возвращение


Перевод: Не требуется
Субтитры: отсутствуют
Формат: WEBRip, MKV, H.264, AC3
Страна: Россия
Режиссер: Алексей Праздников
Жанр: детектив, приключения
Всего серий: 24
Продолжительность: 12 х ~ 00:47:00
Год выпуска: 2018
В ролях: Игорь Лифанов, Роман Курцын, Анна Пескова, Константин Воробьёв, Артур Ваха, Анастасия Стежко, Екатерина Головина, Александр Конев, Александр Иванов, Владислав Демьяненко
Описание: Александр Грек, вернувшись после стажировки в Москву и узнав, что его невеста Лина, с которой он собирался окончательно расстаться, беременна, принимает решение жениться на матери своего ребенка. Однако остаться в столице у него не получается: ему уготована служба в отдалённом районе, и он просит направить его назад, в Карелию. Лина решает ехать с ним и там играть свадьбу. Вернувшись в Карелию, Греку предстоит пережить объяснение с Таней, которую он любит, и с Гиреевым, который зол на молодого человека, заставившего страдать его дочь.



Видео: 1920x1080p (16:9), 25.000 fps, AVC MPEG-4 (x264), High@L4,1, ~ 6000 Кбит/сек, 0,116 bit/pixel
Аудио: 48 kHz, AC3 Dolby Digital, 2/0 (L,R) ch, ~192.00 kbps avg

Внимание! Раздача ведётся путём добавления новых серий. При каждом добавлении создаётся новый торрент.
Чтобы начать докачку новой серии, пользователям необходимо сделать следующее:
1. Остановить скачивание.
2. Удалить старый торрент у себя из клиента (старые серии удалять не надо).
3. Скачать новый торрент и запустить его у себя в клиенте вместо старого, при этом указать клиенту путь в старую папку куда и должно происходить скачивание новых серий. Ваш клиент при этом должен произвести хеширование (проверку) старой папки и будет докачивать только те серии, которых у вас ещё нет. Старые серии при этом не удаляются, а продолжают раздаваться! Eсли вы уже удалили старые серии, то предотвратить повторную закачку старых серий можно, отжав галочку в соответствующих местах при запуске нового торрента.






Общее
Уникальный идентификатор : 232215283658488298355447606405050701324 (0xAEB3096DF7C36D92B3E6BA7FA228960C)
Полное имя : D:\Фильмы торренты\Pyat.minut.tishiny.vozvrashhenie.02.2018.WEB-DL.(1080p).Nikolspup\Pyat.minut.tishiny.vozvrashhenie.02.(01.seriya).2018.WEB-DL.(1080p).Nikolspup.mkv
Формат : Matroska
Версия формата : Version 4 / Version 2
Размер файла : 2,08 Гбайт
Продолжительность : 48 м. 44 с.
Режим общего битрейта : Постоянный
Общий поток : 6100 Кбит/сек
Дата кодирования : UTC 2018-04-23 19:26:04
Программа кодирования : mkvmerge v7.8.0 ('River Man') 32bit built on Mar 27 2015 16:18:02
Библиотека кодирования : libebml v1.3.1 + libmatroska v1.4.2

Видео
Идентификатор : 1
Формат : AVC
Формат/Информация : Advanced Video Codec
Профиль формата :
Настройки формата : 2 Ref Frames
Параметр CABAC формата : Нет
Параметр RefFrames формата : 2 кадра
Идентификатор кодека : V_MPEG4/ISO/AVC
Продолжительность : 48 м. 44 с.
Вид битрейта : Постоянный
Битрейт : 6000 Кбит/сек
Ширина : 1920 пикселей
Высота : 1080 пикселей
Соотношение сторон : 16:9
Режим частоты кадров : Постоянный
Частота кадров : 25,000 кадров/сек
Стандарт вещания : PAL
Цветовое пространство : YUV
Субдискретизация насыщенности : 4:2:0
Битовая глубина : 8 бит
Тип развёртки : Прогрессивная
Бит/(Пиксели*Кадры) : 0.116
Размер потока : 2,01 Гбайт (97%)
Default : Нет
Forced : Нет
Цветовой диапазон : Limited
Основные цвета : BT.709
Характеристики трансфера : BT.709
Коэффициенты матрицы : BT.709

Аудио
Идентификатор : 2
Формат : AC-3
Формат/Информация : Audio Coding 3
Идентификатор кодека : A_AC3
Продолжительность : 48 м. 44 с.
Вид битрейта : Постоянный
Битрейт : 192 Кбит/сек
Каналы : 2 канала
Расположение каналов : Front: L R
Частота : 48,0 КГц
Частота кадров : 31,250 кадров/сек (1536 SPF)
Битовая глубина : 16 бит
Метод сжатия : С потерями
Размер потока : 66,9 Мбайт (3%)
Язык : Russian
ServiceKind/String : Complete Main
Default : Да
Forced : Да





   Похожие торренты   Торрент   Размер 
В этой теме нет новых непрочитанных сообщений. Пять минут тишины (2 сезон: 1-2 серии из 24) Возвращение (Алексей Праздников) [2018, детектив, приключения, WEBRip 1080p]

2 | 0

4.15 ГБ

В этой теме нет новых непрочитанных сообщений. Пять минут тишины (2 сезон: 1-12 серии из 24) Возвращение (Алексей Праздников) [2018, детектив, приключения, WEBRip]

203 | 26

7.14 ГБ

В этой теме нет новых непрочитанных сообщений. Пять минут тишины (2 сезон: 1-2 серии из 24) Возвращение (Алексей Праздников) [2018, детектив, приключения, WEBRip]

13 | 0

1.17 ГБ

В этой теме нет новых непрочитанных сообщений. Пять минут тишины (2 сезон 1-12 серии из 24) Возвращение (Алексей Праздников) [2018, детектив, приключения, WEBRip-AVC]

57 | 4

8.95 ГБ

В этой теме нет новых непрочитанных сообщений. Пять минут тишины (2 сезон: 1-12 серии из 12) Возвращение (Алексей Праздников) [2018, детектив, приключения, HDTVRip 720p]

158 | 78

17.21 ГБ

В этой теме нет новых непрочитанных сообщений. Пять минут тишины (2 сезон 1 серия из 24) Возвращение (Алексей Праздников) [2018, детектив, приключения, WEBRip-AVC]

2 | 0

762.95 МБ

В этой теме нет новых непрочитанных сообщений. Пять минут тишины (2 сезон 1-4 серии из 24) Возвращение (Алексей Праздников, Игорь Драка, Гузэль Киреева) [2018, боевик, драма, WEBRip 720p]

2 | 0

3.74 ГБ




Вы не можете начинать темы
Вы не можете отвечать на сообщения
Вы не можете редактировать свои сообщения
Вы не можете удалять свои сообщения
Вы не можете добавлять вложения

Перейти:  
 Вход
ppkBB3cker v.2 © 2008-2014 @ PPK
[ Time : 0.037s | 16 Queries | GZIP : Off ]

cron