img image001 image001 image001 image001 image001 image001 image001 image001 image001 image001 image001 image001 image001 image001 image001 image001

Planets Sun Sun Sun
Статистика раздачи
Автор: Снежана | Размер: 5.82 ГБ | Добавлен: 22 июн 2018
Раздают: 17    Качают: 4
Скачать торрент
Скачать торрент
Описание торрента

СообщениеДобавлено: 22 июн 2018 

Плакучая ива (1-4 серии из 12)

Перевод: Не требуется, cубтитры: отсутствуют
Формат: HDTV 1080p, MKV, H.264, AC3
Страна: Россия
Режиссер: Феликс Герчиков
Жанр: мелодрама
Всего серий: 12
Продолжительность: 3 x ~ 00:33:00; 1 x ~ 00:18:00
Год выпуска: 2015

В ролях: Анна Снаткина, Борис Хвошнянский, Анна Лутцева, Александр Андриенко, Ольга Сумская, Кирилл Полухин, Михаил Гаврилов (II), Игнатий Акрачков, Виталий Бредихин, Игорь Денисов, Дмитрий Фрид, Анна Носатова, Андрей Лукьянов, Полина Стефанович, Маргарита Удовенко, Евгений Воскресенский, Олеся Грибок

Описание: Эта увлекательная история о женской судьбе, о любви и ненависти, в которой «сильные чувства, проклятия и роковые события» уходят корнями в переломную для России эпоху начала XX века. Предки и их потомки, удивительная реинкарнация душ и страстей, тайные законы бытия – удивительно преломляются в живой истории о любви и прощении.

Рейтинг и доп. информация:


Видео: 920x1080 (16:9), 25 fps, AVC MPEG-4 (x264), ~ 7050 kbps , 0.136 bit/pixel
Аудио: 48 kHz, АС3, 2/0 (L,R), ~192.00 kbps avg
Внимание! Раздача ведётся путём добавления новых серий. При каждом добавлении создаётся новый торрент.
Чтобы начать докачку новой серии, пользователям необходимо сделать следующее:
1. Остановить скачивание.
2. Удалить старый торрент у себя из клиента (старые серии удалять не надо).
3. Скачать новый торрент и запустить его у себя в клиенте вместо старого, при этом указать клиенту путь в старую папку куда и должно происходить скачивание новых серий. Ваш клиент при этом должен произвести хеширование (проверку) старой папки и будет докачивать только те серии, которых у вас ещё нет. Старые серии при этом не удаляются, а продолжают раздаваться! Eсли вы уже удалили старые серии, то предотвратить повторную закачку старых серий можно, отжав галочку в соответствующих местах при запуске нового торрента.


General
Unique ID : 240705503903569906588063147935871257673 (0xB516319B3780264396FF1B6FDAD7CC49)
Complete name : E:Plakuchaya iva 2018.HDTV 1080p.R.G.GeneralfilmPlakuchaya iva.s01.e01.2018.HDTV 1080p.by.White Smoke.R.G.Generalfilm.mkv
Format : Matroska
Format version : Version 2
File size : 1.69 GiB
Duration : 33 min
Overall bit rate mode : Constant
Overall bit rate : 7 238 kb/s
Movie name : Plakuchaya iva.s01.e01.2018.HDTV 1080p.by.White Smoke.R.G.Generalfilm.mkv
Encoded date : UTC 2018-06-21 12:38:50
Writing application : mkvmerge v7.6.0 ('Garden of Dreams') 32bit built on Feb 11 2015 00:18:47
Writing library : libebml v1.3.1 + libmatroska v1.4.2

Video
ID : 1
Format : AVC
Format/Info : Advanced Video Codec
Format profile :
Format settings, CABAC : Yes
Format settings, ReFrames : 3 frames
Codec ID : V_MPEG4/ISO/AVC
Duration : 33 min
Bit rate mode : Constant
Bit rate : 7 051 kb/s
Width : 1 920 pixels
Height : 1 080 pixels
Display aspect ratio : 16:9
Frame rate mode : Constant
Frame rate : 25.000 FPS
Standard : PAL
Color space : YUV
Chroma subsampling : 4:2:0
Bit depth : 8 bits
Scan type : Progressive
Bits/(Pixel*Frame) : 0.136
Stream size : 1.61 GiB (95%)
Default : Yes
Forced : No
Color range : Limited
Color primaries : BT.709
Transfer characteristics : BT.709
Matrix coefficients : BT.709

Audio
ID : 2
Format : AC-3
Format/Info : Audio Coding 3
Mode extension : CM (complete main)
Format settings, Endianness : Big
Codec ID : A_AC3
Duration : 33 min
Bit rate mode : Constant
Bit rate : 192 kb/s
Channel(s) : 2 channels
Channel positions : Front: L R
Sampling rate : 48.0 kHz
Frame rate : 31.250 FPS (1536 spf)
Compression mode : Lossy
Stream size : 46.0 MiB (3%)
Default : Yes
Forced : No










   Похожие торренты   Торрент   Размер 
В этой теме нет новых непрочитанных сообщений. Плакучая ива (1-12 серии из 12) (Феликс Герчиков) [2015, мелодрама, HDTV 1080p]

20 | 2

19.61 ГБ

В этой теме нет новых непрочитанных сообщений. Плакучая ива (1-12 серии из 12) (Феликс Герчиков) [2015, мелодрама, WEB-DLRip]

41 | 4

4.72 ГБ

В этой теме нет новых непрочитанных сообщений. Плакучая ива (1-12 серии из 12) (Феликс Герчиков) [2015, мелодрама, WEB-DLRip-AVC]

52 | 2

4.84 ГБ

В этой теме нет новых непрочитанных сообщений. Плакучая ива (1-4 серии из 12) (Феликс Герчиков) [2015, мелодрама, HDTVRip 720p]

4 | 0

3.37 ГБ

В этой теме нет новых непрочитанных сообщений. Плакучая ива (1-4 серии из 12) (Феликс Герчиков) [2018, мелодрама, WEB-DLRip]

4 | 0

1.38 ГБ

В этой теме нет новых непрочитанных сообщений. Плакучая ива (1-4 серии из 12) (Феликс Герчиков) [2018, мелодрама, WEB-DLRip-AVC]

13 | 0

1.43 ГБ

В этой теме нет новых непрочитанных сообщений. Война и мир, 1 сезон 1-4 серии из 6 / War and Peace [NewStudio] (Том Харпер) [2016, драма, мелодрама, военный, история, WEB-DL 1080p/HDTV 1080p, P]

71 | 82

9.95 ГБ




Вы не можете начинать темы
Вы не можете отвечать на сообщения
Вы не можете редактировать свои сообщения
Вы не можете удалять свои сообщения
Вы не можете добавлять вложения

Перейти:  
 Вход
ppkBB3cker v.2 © 2008-2014 @ PPK
[ Time : 0.031s | 17 Queries | GZIP : Off ]

cron