img image001 image001 image001 image001 image001 image001 image001 image001 image001 image001 image001 image001 image001 image001 image001 image001

Planets Sun Sun Sun
Статистика раздачи
Автор: Снежана | Размер: 3.37 ГБ | Добавлен: 22 июн 2018
Раздают: 4    Качают: 0
Скачать торрент
Скачать торрент
Описание торрента

СообщениеДобавлено: 22 июн 2018 

Плакучая ива (1-4 серии из 12)

Перевод: Не требуется, cубтитры: отсутствуют
Формат: HDTVRip 720p, MKV, H.264, AC3
Страна: Россия
Режиссер: Феликс Герчиков
Жанр: мелодрама
Всего серий: 12
Продолжительность: 3 x ~ 00:33:00; 1 x ~ 00:18:00
Год выпуска: 2015

В ролях: Анна Снаткина, Борис Хвошнянский, Анна Лутцева, Александр Андриенко, Ольга Сумская, Кирилл Полухин, Михаил Гаврилов (II), Игнатий Акрачков, Виталий Бредихин, Игорь Денисов, Дмитрий Фрид, Анна Носатова, Андрей Лукьянов, Полина Стефанович, Маргарита Удовенко, Евгений Воскресенский, Олеся Грибо

Описание: Эта увлекательная история о женской судьбе, о любви и ненависти, в которой «сильные чувства, проклятия и роковые события» уходят корнями в переломную для России эпоху начала XX века. Предки и их потомки, удивительная реинкарнация душ и страстей, тайные законы бытия – удивительно преломляются в живой истории о любви и прощении.

Рейтинг и доп. информация:


Видео: 1280x720 (16:9), 25 fps, AVC MPEG-4 (x264), ~ 4000 kbps avg, 0.174 bit/pixel
Аудио: 48 kHz, АС3, 2/0 (L,R), ~192.00 kbps avg
Внимание! Раздача ведётся путём добавления новых серий. При каждом добавлении создаётся новый торрент.
Чтобы начать докачку новой серии, пользователям необходимо сделать следующее:
1. Остановить скачивание.
2. Удалить старый торрент у себя из клиента (старые серии удалять не надо).
3. Скачать новый торрент и запустить его у себя в клиенте вместо старого, при этом указать клиенту путь в старую папку куда и должно происходить скачивание новых серий. Ваш клиент при этом должен произвести хеширование (проверку) старой папки и будет докачивать только те серии, которых у вас ещё нет. Старые серии при этом не удаляются, а продолжают раздаваться! Eсли вы уже удалили старые серии, то предотвратить повторную закачку старых серий можно, отжав галочку в соответствующих местах при запуске нового торрента.


Общее
Уникальный идентификатор : 79898554122566897957782835462284386611 (0x3C1BE6DBB2161F0BEBCA8EF9647E2133)
Полное имя : C:\Plakuchaya iva 720p\Plakuchaya.iva.s01.e04.2018.HDTVRip.720p.mkv
Формат : Matroska
Версия формата : Version 4 / Version 2
Размер файла : 545 Мбайт
Продолжительность : 18 м. 11 с.
Общий поток : 4191 Кбит/сек
Название фильма : Plakuchaya iva.s01.e04.2018.HDTV 1080p.by.White Smoke.R.G.Generalfilm.mkv
Программа кодирования : Lavf56.36.100
Библиотека кодирования : Lavf56.36.100

Видео
Идентификатор : 1
Формат : AVC
Формат/Информация : Advanced Video Codec
Профиль формата :
Настройки формата : 2 Ref Frames
Параметр CABAC формата : Нет
Параметр RefFrames формата : 2 кадра
Идентификатор кодека : V_MPEG4/ISO/AVC
Продолжительность : 18 м. 11 с.
Битрейт : 4000 Кбит/сек
Ширина : 1280 пикселей
Высота : 720 пикселей
Соотношение сторон : 16:9
Режим частоты кадров : Постоянный
Частота кадров : 25,000 кадров/сек
Цветовое пространство : YUV
Субдискретизация насыщенности : 4:2:0
Битовая глубина : 8 бит
Тип развёртки : Прогрессивная
Бит/(Пиксели*Кадры) : 0.174
Размер потока : 509 Мбайт (93%)
Библиотека кодирования : x264 core 148 r2579 73ae2d1
Настройки программы : cabac=0 / ref=2 / deblock=1:0:0 / analyse=0x1:0x111 / me=umh / subme=6 / psy=1 / psy_rd=1.00:0.00 / mixed_ref=1 / me_range=16 / chroma_me=1 / trellis=0 / 8x8dct=0 / cqm=0 / deadzone=21,11 / fast_pskip=1 / chroma_qp_offset=-2 / threads=12 / lookahead_threads=2 / sliced_threads=0 / nr=0 / decimate=1 / interlaced=0 / bluray_compat=0 / constrained_intra=0 / bframes=0 / weightp=0 / keyint=250 / keyint_min=25 / scenecut=40 / intra_refresh=0 / rc_lookahead=40 / rc=abr / mbtree=1 / bitrate=4000 / ratetol=1.0 / qcomp=0.60 / qpmin=0 / qpmax=69 / qpstep=4 / ip_ratio=1.40 / aq=1:1.00
Default : Нет
Forced : Нет

Аудио
Идентификатор : 2
Формат : AC-3
Формат/Информация : Audio Coding 3
Идентификатор кодека : A_AC3
Продолжительность : 18 м. 11 с.
Вид битрейта : Постоянный
Битрейт : 192 Кбит/сек
Каналы : 2 канала
Расположение каналов : Front: L R
Частота : 48,0 КГц
Частота кадров : 31,250 кадров/сек (1536 SPF)
Битовая глубина : 16 бит
Метод сжатия : С потерями
Размер потока : 25,0 Мбайт (5%)
ServiceKind/String : Complete Main
Default : Да
Forced : Нет










   Похожие торренты   Торрент   Размер 
В этой теме нет новых непрочитанных сообщений. Плакучая ива (1-12 серии из 12) (Феликс Герчиков) [2015, мелодрама, WEB-DLRip]

206 | 28

4.72 ГБ

В этой теме нет новых непрочитанных сообщений. Плакучая ива (1-12 серии из 12) (Феликс Герчиков) [2015, мелодрама, WEB-DLRip-AVC]

94 | 15

4.84 ГБ

В этой теме нет новых непрочитанных сообщений. Плакучая ива (1-12 серии из 12) (Феликс Герчиков) [2015, мелодрама, HDTV 1080p]

64 | 9

19.61 ГБ

В этой теме нет новых непрочитанных сообщений. Плакучая ива (1-4 серии из 12) (Феликс Герчиков) [2015, мелодрама, HDTV 1080p]

17 | 4

5.82 ГБ

В этой теме нет новых непрочитанных сообщений. Плакучая ива (1-4 серии из 12) (Феликс Герчиков) [2018, мелодрама, WEB-DLRip-AVC]

13 | 0

1.43 ГБ

В этой теме нет новых непрочитанных сообщений. Плакучая ива (1-4 серии из 12) (Феликс Герчиков) [2018, мелодрама, WEB-DLRip]

11 | 0

1.38 ГБ

В этой теме нет новых непрочитанных сообщений. Плакучая ива [01-03 из 03] (2015) HDTVRip 720p от MediaClub

12 | 5

10.92 ГБ




Вы не можете начинать темы
Вы не можете отвечать на сообщения
Вы не можете редактировать свои сообщения
Вы не можете удалять свои сообщения
Вы не можете добавлять вложения

Перейти:  
 Вход
ppkBB3cker v.2 © 2008-2014 @ PPK
[ Time : 0.028s | 16 Queries | GZIP : Off ]

cron