img image001 image001 image001 image001 image001 image001 image001 image001 image001 image001 image001 image001 image001 image001 image001 image001

Planets Sun Sun Sun
Статистика раздачи
Автор: Снежана | Размер: 4.26 ГБ | Добавлен: 02 июл 2018
Раздают: 19    Качают: 2
Скачать торрент
Скачать торрент
Описание торрента

СообщениеДобавлено: 02 июл 2018 

Информация о фильме
Название: Без права на выбор
Год выхода: 2013
Жанр: Военный, приключения
Режиссер: Леонид Белозорович
В ролях: Куандык Кыстыкбаев, Александр Петров (II), Мария Луговая, Михаил Евланов, Денис Беспалый, Александр Лыков, Владимир Гостюхин, Олег Примогенов, Василий Бочкарёв, Тома Вашкявичюте, Годехард Гиз, Андреас Конрад, Ирина Рождественская, Инна Мирошниченко, Борис Георгиевский, Евгений Пашин, Сергей Калантай, Мирослав Павличенко, Антон Себастиан, Юрий Шульган
О фильме: Прототипом главного героя послужил известный советский диверсант Касым Кайсенов, который воевал на Украине во время Великой Отечественной Войны. На этот раз перед Касымом стоит задание взорвать немецкий склад топлива. Но диверсионная группа, с которой Касым оказывается на вражеской территории, уничтожена, и теперь помочь Касыму могут только местные жители.

Выпущено: Россия, Украина, Казахстан, Film.UA, Intra Communications
Продолжительность: 4 x ~ 00:52:00
Перевод: Не требуется
Файл
Кодек: х264
Качество: WEB-DLRip-AVC
Видео: MPEG-4 AVC, 1024х576, 25.000 fps, 2723 Кбит/с
Аудио: AC3, 2 ch, 192 Кбит/с
Субтитры: Нет
Релиз от:


Общее
Уникальный идентификатор : 217975266015922342218788662253859191502 (0xA3FC825AA44BCCA094C3F7EC17F13ACE)
Полное имя : Без права на выбор.2013.WEB-DLRip-AVC.KORSAR.mkv
Формат : Matroska
Версия формата : Version 2
Размер файла : 1,06 Гбайт
Продолжительность : 50 м. 56 с.
Общий поток : 2974 Кбит/сек
Дата кодирования : UTC 2017-07-15 05:19:27
Программа кодирования : mkvmerge v7.8.0 ('River Man') 32bit built on Apr 3 2015 12:11:22
Библиотека кодирования : libebml v1.3.1 + libmatroska v1.4.2
Видео
Идентификатор : 1
Формат : AVC
Формат/Информация : Advanced Video Codec
Профиль формата : High@L4.1
Параметр CABAC формата : Да
Параметр ReFrames формата : 13 кадров
Идентификатор кодека : V_MPEG4/ISO/AVC
Продолжительность : 50 м. 56 с.
Битрейт : 2723 Кбит/сек
Ширина : 1024 пикселя
Высота : 576 пикселей
Соотношение сторон : 16:9
Режим частоты кадров : Постоянный
Частота кадров : 25,000 кадров/сек
Цветовое пространство : YUV
Субдискретизация насыщенности : 4:2:0
Битовая глубина : 8 бит
Тип развёртки : Прогрессивная
Бит/(Пиксели*Кадры) : 0.185
Размер потока : 992 Мбайт (92%)
Библиотека кодирования : x264 core 148 r2744kMod b97ae06
Настройки программы : cabac=1 / ref=13 / deblock=1:-2:-2 / analyse=0x3:0x133 / me=umh / subme=10 / psy=1 / fade_compensate=0.00 / psy_rd=1.05:0.10 / mixed_ref=1 / me_range=32 / chroma_me=1 / trellis=2 / 8x8dct=1 / cqm=0 / deadzone=21,11 / fast_pskip=1 / chroma_qp_offset=-3 / threads=6 / lookahead_threads=1 / sliced_threads=0 / nr=0 / decimate=1 / interlaced=0 / bluray_compat=0 / constrained_intra=0 / bframes=12 / b_pyramid=2 / b_adapt=2 / b_bias=0 / direct=1 / weightb=1 / open_gop=0 / weightp=2 / keyint=250 / keyint_min=25 / scenecut=40 / intra_refresh=0 / rc=crf / mbtree=0 / crf=19.3000 / qcomp=0.63 / qpmin=0 / qpmax=39 / qpstep=4 / ip_ratio=1.25 / pb_ratio=1.30 / aq=2:1.00
Язык : Russian
Default : Да
Forced : Нет
Цветовой диапазон : Limited
Основные цвета : BT.709
Характеристики трансфера : BT.709
Коэффициенты матрицы : BT.709
Аудио
Идентификатор : 2
Формат : AC-3
Формат/Информация : Audio Coding 3
Параметр Endianness формата : Big
Идентификатор кодека : A_AC3
Продолжительность : 50 м. 56 с.
Вид битрейта : Постоянный
Битрейт : 192 Кбит/сек
Каналы : 2 канала
Расположение каналов : Front: L R
Частота : 44,1 КГц
Частота кадров : 28,711 кадров/сек (1536 spf)
Битовая глубина : 16 бит
Метод сжатия : С потерями
Размер потока : 70,0 Мбайт (6%)
Язык : Russian
Default : Да
Forced : Нет



   Похожие торренты   Торрент   Размер 
В этой теме нет новых непрочитанных сообщений. Без права на выбор [01-04 из 04] (2013) DVDRip

63 | 13

1.46 ГБ

В этой теме нет новых непрочитанных сообщений. Без права на выбор [01-04 из 04] (2013) DVDRip

643 | 31

2.5 ГБ

В этой теме нет новых непрочитанных сообщений. Без права на выбор [01-04 из 04] (2013) DVD5

17 | 8

3.55 ГБ

В этой теме нет новых непрочитанных сообщений. Без права на выбор [01-04 из 04] (2013) DVDRip от MediaClub | КПК

3 | 5

1.13 ГБ

В этой теме нет новых непрочитанных сообщений. Без права на выбор [01-04 из 04] (2013) WEB-DL 1080p от MediaClub

39 | 21

4.61 ГБ

В этой теме нет новых непрочитанных сообщений. Выбор (1987) DVDRip-AVC от KORSAR

1 | 0

2.68 ГБ

В этой теме нет новых непрочитанных сообщений. Право голоса. Россия - США без права на избранность [11.10] (2013) WEBRip

0 | 1

752.73 МБ




Вы не можете начинать темы
Вы не можете отвечать на сообщения
Вы не можете редактировать свои сообщения
Вы не можете удалять свои сообщения
Вы не можете добавлять вложения

Перейти:  
 Вход
ppkBB3cker v.2 © 2008-2014 @ PPK
[ Time : 0.039s | 17 Queries | GZIP : Off ]

cron