img image001 image001 image001 image001 image001 image001 image001 image001 image001 image001 image001 image001 image001 image001 image001

Planets Sun Sun Sun
Статистика раздачи
Автор: Снежана | Размер: 8.6 ГБ | Добавлен: 02 июл 2018
Раздают: 7    Качают: 7
Скачать торрент
Скачать торрент
Описание торрента

СообщениеДобавлено: 02 июл 2018 

Название: Секретные материалы
Оригинальное название: The X-Files
Год выпуска: 1997-1998
Жанр: Фантастика, триллер, драма, детектив
Выпущено: США, Канада / 20th Century Fox Television, Ten Thirteen Productions, X-F Productions
Продолжительность: 20x00:45:00
Перевод: Профессиональный (дублированный) ТВ3


Описание: Специальному агенту Дане Скалли, доктору и преподавателю академии ФБР в Вирджинии, поручают работу в паре с агентом Фоксом Малдером над проектом «Секретные материалы», архивом таинственных, нерешенных дел ФБР, которые зачастую связаны с паранормальными явлениями, случаями вампиризма и оборотничества, нападением генетических мутантов, свидетельствами о похищении людей пришельцами...
Малдер верит в пришельцев и пытается убедить скептика Скалли, что не всё и не всегда поддаётся разумному объяснению. В своих дискуссиях Малдер и Скалли не столько стараются убедить друг друга, сколько получают удовольствие от самого общения.
05x01x98 Возвращение. Redux. Redux (2 ноября 1997)
05x02x99 Возвращение II. Redux II (9 ноября 1997)
05x03x100 Необычные подозреваемые. Unusual Suspects (16 ноября 1997)
05x04x101 Объезд. Detour (23 ноября 1997)
05x05x102 Постмодернистский Прометей. Post-Modern Prometheus (30 ноября 1997)
05x06x103 Рождественский гимн. Christmas Carol (7 декабря 1997)
05x07x104 Эмили. Emily (14 декабря 1997)
05x08x105 Охота на лис. Kitsunegari (4 января 1998)
05x09x106 Шизогения. Schizogeny (11 января 1998)
05x10x107 Чинга. Chinga (8 февраля 1998)
05x11x108 Код для уничтожения. Kill Switch (15 февраля 1998)
05x12x109 Дурная кровь. Bad Blood (22 февраля 1998)
05x13x110 Пациент Икс. Patient X (1 марта 1998)
05x14x111 Красное и чёрное. The Red and the Black (8 марта 1998)
05x15x112 Странники. Travelers (29 марта 1998)
05x16x113 Око разума. Mind's Eye (19 апреля 1998)
05x17x114 Все души. All Souls (26 апреля 1998)
05x18x115 Вариант Блеф. The Pine Bluff Variant (3 мая 1998)
05x19x116 Обоюдное сумасшествие. Folie a Deux (10 мая 1998)
05x20x117 Конец. The End (17 мая 1998)

Файл
Кодек: H.264/AVC
Качество: BDRip 720p
Видео: 1280x720 at 23.976 fps, AVC , ~1000 kbps avg
Аудио #1: AAC, 2 ch, 192 kbps, 48,0 КГц, (Russian) - Дубляж ТВ-3
Аудио #2: AAC, 6 ch, 192 kbps, 48,0 КГц, (English)
Субтитры: Russian (Катя Архипова и lostrator)
Субтитры: English
Разделение по главам: есть

Автор записи/рипа: waPBX
Общее
Уникальный идентификатор : 321921362150742455112211929559082613495 (0xF22FCC927FDC33E28F1139D0A6A63AF7)
Полное имя : S01-07. BDRip-AVC 720pСекретные материалы. X-Files. S05 (1997) BDRip-AVC 720p\05x14x111 Красное и чёрное. The Red and the Black (08.03.1998).mkv
Формат : Matroska
Версия формата : Version 4 / Version 2
Размер файла : 444 Мбайт
Продолжительность : 45 м. 1 с.
Общий поток : 1378 Кбит/сек
Дата кодирования : UTC 2018-06-28 18:44:23
Программа кодирования : mkvmerge v24.0.0 ('Beyond The Pale') 64-bit
Библиотека кодирования : libebml v1.3.6 + libmatroska v1.4.9
Attachments : 7fonts.ru_Xfiles.ttf / 7785.ttf / 7786.ttf / AmericanTypewriter.ttc / Arial Bold.ttf / corona.TTF / GillSans.ttc / Iris_Normal.ttf / LOST (3).TTF / Times New Roman.ttf / times.ttf / TrajanPro3-Bold.otf / X-files2.ttf / 7fonts.ru_Xfiles.ttf / 7785.ttf / 7786.ttf / AmericanTypewriter.ttc / Arial Bold.ttf / corona.TTF / GillSans.ttc / Iris_Normal.ttf / LOST (3).TTF / Times New Roman.ttf / times.ttf / TrajanPro3-Bold.otf / X-files2.ttf
Видео
Идентификатор : 1
Формат : AVC
Формат/Информация : Advanced Video Codec
Профиль формата : High@L4.1
Настройки формата : CABAC / 8 Ref Frames
Параметр CABAC формата : Да
Параметр RefFrames формата : 8 кадров
Идентификатор кодека : V_MPEG4/ISO/AVC
Продолжительность : 45 м. 1 с.
Битрейт : 948 Кбит/сек
Ширина : 1280 пикселей
Высота : 720 пикселей
Соотношение сторон : 16:9
Режим частоты кадров : Постоянный
Частота кадров : 23,976 (24000/1001) кадра/сек
Цветовое пространство : YUV
Субдискретизация насыщенности : 4:2:0
Битовая глубина : 8 бит
Тип развёртки : Прогрессивная
Бит/(Пиксели*Кадры) : 0.043
Размер потока : 305 Мбайт (69%)
Библиотека кодирования : x264 core 148 r2638 7599210
Настройки программы : cabac=1 / ref=8 / deblock=1:-1:-1 / analyse=0x3:0x133 / me=umh / subme=9 / psy=1 / psy_rd=1.00:0.15 / mixed_ref=1 / me_range=24 / chroma_me=1 / trellis=2 / 8x8dct=1 / cqm=0 / deadzone=21,11 / fast_pskip=1 / chroma_qp_offset=-3 / threads=12 / lookahead_threads=1 / sliced_threads=0 / nr=0 / decimate=1 / interlaced=0 / bluray_compat=0 / constrained_intra=0 / bframes=3 / b_pyramid=2 / b_adapt=2 / b_bias=0 / direct=3 / weightb=1 / open_gop=0 / weightp=2 / keyint=240 / keyint_min=23 / scenecut=40 / intra_refresh=0 / rc_lookahead=60 / rc=2pass / mbtree=1 / bitrate=948 / ratetol=1.0 / qcomp=0.60 / qpmin=0 / qpmax=69 / qpstep=4 / cplxblur=20.0 / qblur=0.5 / vbv_maxrate=62500 / vbv_bufsize=78125 / nal_hrd=none / filler=0 / ip_ratio=1.40 / aq=1:1.00
Язык : Russian
Default : Да
Forced : Нет
Аудио #1
Идентификатор : 2
Формат : AAC
Формат/Информация : Advanced Audio Codec
Профиль формата : LC
Идентификатор кодека : A_AAC-2
Продолжительность : 45 м. 1 с.
Битрейт : 192 Кбит/сек
Каналы : 2 канала
Расположение каналов : Front: L R
Частота : 48,0 КГц
Частота кадров : 46,875 кадров/сек (1024 SPF)
Метод сжатия : С потерями
Размер потока : 61,8 Мбайт (14%)
Заголовок : ТВ3
Язык : Russian
Default : Да
Forced : Нет
Аудио #2
Идентификатор : 3
Формат : AAC
Формат/Информация : Advanced Audio Codec
Профиль формата : HE-AAC / LC
Настройки формата : Explicit
Идентификатор кодека : A_AAC-2
Продолжительность : 45 м. 1 с.
Битрейт : 192 Кбит/сек
Каналы : 6 каналов
Расположение каналов : Front: L C R, Side: L R, LFE
Частота : 48,0 КГц / 24,0 КГц
Частота кадров : 23,438 кадра/сек (1024 SPF)
Метод сжатия : С потерями
Задержка видео : 31 мс.
Размер потока : 61,0 Мбайт (14%)
Язык : English
Default : Нет
Forced : Нет
Текст #1
Идентификатор : 4
Формат : ASS
Идентификатор кодека : S_TEXT/ASS
Идентификатор кодека/Информация : Advanced Sub Station Alpha
Продолжительность : 44 м. 22 с.
Битрейт : 166 бит/сек
ElementCount : 520
Метод сжатия : Без потерь
Размер потока : 53,9 Кбайт (0%)
Заголовок : lostrator
Язык : Russian
Default : Нет
Forced : Нет
Текст #2
Идентификатор : 5
Формат : UTF-8
Идентификатор кодека : S_TEXT/UTF8
Идентификатор кодека/Информация : UTF-8 Plain Text
Продолжительность : 44 м. 22 с.
Битрейт : 107 бит/сек
ElementCount : 520
Размер потока : 35,0 Кбайт (0%)
Заголовок : lostrator (SRT)
Язык : Russian
Default : Нет
Forced : Нет
Текст #3
Идентификатор : 6
Формат : ASS
Идентификатор кодека : S_TEXT/ASS
Идентификатор кодека/Информация : Advanced Sub Station Alpha
Продолжительность : 44 м. 22 с.
Битрейт : 51 бит/сек
ElementCount : 130
Метод сжатия : Без потерь
Размер потока : 16,6 Кбайт (0%)
Заголовок : lostrator (Forced)
Язык : Russian
Default : Нет
Forced : Нет
Текст #4
Идентификатор : 7
Формат : UTF-8
Идентификатор кодека : S_TEXT/UTF8
Идентификатор кодека/Информация : UTF-8 Plain Text
Продолжительность : 44 м. 22 с.
Битрейт : 22 бит/сек
ElementCount : 130
Размер потока : 7,43 Кбайт (0%)
Заголовок : lostrator (Forced) (SRT)
Язык : Russian
Default : Нет
Forced : Нет
Текст #5
Идентификатор : 8
Формат : UTF-8
Идентификатор кодека : S_TEXT/UTF8
Идентификатор кодека/Информация : UTF-8 Plain Text
Продолжительность : 42 м. 4 с.
Битрейт : 50 бит/сек
ElementCount : 375
Размер потока : 15,7 Кбайт (0%)
Заголовок : Original
Язык : English
Default : Нет
Forced : Нет
Текст #6
Идентификатор : 9
Формат : UTF-8
Идентификатор кодека : S_TEXT/UTF8
Идентификатор кодека/Информация : UTF-8 Plain Text
Продолжительность : 42 м. 4 с.
Битрейт : 51 бит/сек
ElementCount : 382
Размер потока : 15,9 Кбайт (0%)
Заголовок : Original (SDH)
Язык : English
Default : Нет
Forced : Нет
Текст #7
Идентификатор : 10
Формат : UTF-8
Идентификатор кодека : S_TEXT/UTF8
Идентификатор кодека/Информация : UTF-8 Plain Text
Продолжительность : 44 м. 23 с.
Битрейт : 143 бит/сек
ElementCount : 448
Размер потока : 46,6 Кбайт (0%)
Заголовок : Commentary (Крис Картер) [Jess aka jessgp]
Язык : Russian
Default : Нет
Forced : Нет
Меню
00:00:00.000 : en:00:00:00.000
00:02:09.463 : en:00:02:09.463
00:02:41.370 : en:00:02:41.370
00:05:58.817 : en:00:05:58.817
00:09:10.842 : en:00:09:10.842
00:11:41.326 : en:00:11:41.326
00:12:55.817 : en:00:12:55.817
00:16:53.304 : en:00:16:53.304
00:18:44.749 : en:00:18:44.749
00:27:27.521 : en:00:27:27.521
00:30:46.261 : en:00:30:46.261
00:34:43.999 : en:00:34:43.999
00:36:05.372 : en:00:36:05.372
00:41:54.429 : en:00:41:54.429
00:44:23.119 : en:00:44:23.119

   Похожие торренты   Торрент   Размер 
В этой теме нет новых непрочитанных сообщений. Секретные материалы. The X-Files [S05] (1997) BDRip-HEVC 1080p | ТВ-3

0 | 0

20.14 ГБ

В этой теме нет новых непрочитанных сообщений. Секретные материалы / The X-Files [S04] (1996) BDRip 720p | ТВ3

2 | 1

9.93 ГБ

В этой теме нет новых непрочитанных сообщений. Секретные материалы / The X-Files [S06] (1998) BDRip 720p | ТВ3

0 | 1

10.26 ГБ

В этой теме нет новых непрочитанных сообщений. Секретные материалы / The X-Files [11x01 из 10] (2018) WEBRip | ТВ3

0 | 0

563.52 МБ

В этой теме нет новых непрочитанных сообщений. Секретные материалы / The X-Files [11x01 из 10] (2018) WEBRip 1080p | ТВ3

38 | 6

3.77 ГБ

В этой теме нет новых непрочитанных сообщений. Секретные материалы / The X-Files [S06] (1998) BDRip-AVC 720p | ТВ-3

2 | 2

14.17 ГБ

В этой теме нет новых непрочитанных сообщений. Секретные материалы: Хочу верить / The X-Files: I Want to Believe (2008) BDRip 720p от k.e.n & MegaPeer | D, A | Extended Cut

7 | 4

4.37 ГБ




Вы не можете начинать темы
Вы не можете отвечать на сообщения
Вы не можете редактировать свои сообщения
Вы не можете удалять свои сообщения
Вы не можете добавлять вложения

Перейти:  
Контактная информация: rstracker[пёсик]yandex.ru
 Вход
ppkBB3cker v.2 © 2008-2014 @ PPK
[ Time : 0.035s | 20 Queries | GZIP : Off ]

cron