img image001 image001 image001 image001 image001 image001 image001 image001 image001 image001 image001 image001 image001 image001 image001 image001

Planets Sun Sun Sun
Статистика раздачи
Автор: Снежана | Размер: 34.53 ГБ | Добавлен: 09 июл 2018
Раздают: 9    Качают: 0
Скачать торрент
Скачать торрент
Описание торрента

СообщениеДобавлено: 09 июл 2018 

Пляж (2 сезон 1-16 серии из 16) Жаркий сезон

Перевод: Не требуется, cубтитры: отсутствуют
Формат: WEBRip 1080p, MKV, H.264, AC3
Страна: Россия
Режиссер: Леонид Белозорович
Жанр: детектив, комедия
Всего серий: 16
Продолжительность: 16 x ~ 00:51:00
Год выпуска: 2017

В ролях: Павел Делонг, Георгий Дронов, Елена Аросьева, Мария Горбань, Юлия Харьковская, Екатерина Сапрыкина, Олег Метелев, Денис Доронин, Сергей Басок, Кристина Курбанова

Описание: Продолжение сериала "Пляж". Приятели продолжают патрулировать морское побережье и охранять покой отдыхающих. Но теперь Андрей Гошко берется еще и наладить работу в местном отделении полиции, которое погрязло в коррупции и скандалах. Да и его другу Сергею предстоит борьба с местными казнокрадами, проститутками и подпольными игорными заведениями, которые в сезон отпусков пытаются получить сверхприбыль на отдыхающих.

Рейтинг и доп. информация:


Видео: 1920х1080, (16:9), 25 fps, AVC MPEG-TS (x264), High@L4 ~ 6000 kbps avg, 0.116 bit/pixel
Аудио: 48 kHz, AC3, 2/0 (L,R) ch, ~192.00 kbps avg
Общее
Уникальный идентификатор : 223724704966551058295416288909602411465 (0xA84FCF947BC518EA8D8D211A104553C9)
Полное имя : C:\Plyazh.Zharkij.sezon.2017.WEB-DL.(1080p).Nikolspup\Plyazh.Zharkij.sezon.(01.seriya.iz.16).2017.WEB-DL.(1080p).Nikolspup.mkv
Формат : Matroska
Версия формата : Version 4 / Version 2
Размер файла : 2,17 Гбайт
Продолжительность : 50 м. 15 с.
Режим общего битрейта : Постоянный
Общий поток : 6189 Кбит/сек
Дата кодирования : UTC 2018-06-30 18:18:11
Программа кодирования : mkvmerge v7.8.0 ('River Man') 32bit built on Mar 27 2015 16:18:02
Библиотека кодирования : libebml v1.3.1 + libmatroska v1.4.2

Видео
Идентификатор : 1
Формат : AVC
Формат/Информация : Advanced Video Codec
Профиль формата :
Настройки формата : 2 Ref Frames
Параметр CABAC формата : Нет
Параметр RefFrames формата : 2 кадра
Идентификатор кодека : V_MPEG4/ISO/AVC
Продолжительность : 50 м. 15 с.
Вид битрейта : Постоянный
Битрейт : 6000 Кбит/сек
Ширина : 1920 пикселей
Высота : 1080 пикселей
Соотношение сторон : 16:9
Режим частоты кадров : Постоянный
Частота кадров : 25,000 кадров/сек
Стандарт вещания : PAL
Цветовое пространство : YUV
Субдискретизация насыщенности : 4:2:0
Битовая глубина : 8 бит
Тип развёртки : Прогрессивная
Бит/(Пиксели*Кадры) : 0.116
Размер потока : 2,06 Гбайт (95%)
Default : Да
Forced : Нет
Цветовой диапазон : Limited
Основные цвета : BT.709
Характеристики трансфера : BT.709
Коэффициенты матрицы : BT.709

Аудио
Идентификатор : 2
Формат : AC-3
Формат/Информация : Audio Coding 3
Идентификатор кодека : A_AC3
Продолжительность : 50 м. 15 с.
Вид битрейта : Постоянный
Битрейт : 192 Кбит/сек
Каналы : 2 канала
Расположение каналов : Front: L R
Частота : 48,0 КГц
Частота кадров : 31,250 кадров/сек (1536 SPF)
Битовая глубина : 16 бит
Метод сжатия : С потерями
Размер потока : 69,0 Мбайт (3%)
Язык : Russian
ServiceKind/String : Complete Main
Default : Да
Forced : Нет








   Похожие торренты   Торрент   Размер 
В этой теме нет новых непрочитанных сообщений. Пляж (2 сезон 1-8 серии из 16) Жаркий сезон (Леонид Белозорович) [2017, детектив, комедия, WEBRip 1080p]

15 | 4

17.34 ГБ

В этой теме нет новых непрочитанных сообщений. Пляж (2 сезон 1-8 серии из 16) Жаркий сезон (Леонид Белозорович) [2017, детектив, комедия, WEBRip-AVC]

0 | 1

6.17 ГБ

В этой теме нет новых непрочитанных сообщений. Пляж (2 сезон 1-16 серии из 16) Жаркий сезон (Леонид Белозорович) [2017, детектив, комедия, WEBRip-AVC]

14 | 4

12.27 ГБ

В этой теме нет новых непрочитанных сообщений. Пляж (2 сезон 1-8 серии из 16) Жаркий сезон (Леонид Белозорович) [2017, детектив, комедия, WEBRip]

172 | 27

5.08 ГБ

В этой теме нет новых непрочитанных сообщений. Пляж (2 сезон 1-16 серии из 16) Жаркий сезон (Леонид Белозорович) [2017, детектив, комедия, WEBRip]

94 | 11

10.15 ГБ

В этой теме нет новых непрочитанных сообщений. Пляж (2 сезон 1-16 серии из 16) Жаркий сезон (Леонид Белозорович) [2018, детектив, комедия, WEBRip 720p]

14 | 10

25.03 ГБ

В этой теме нет новых непрочитанных сообщений. Пляж (2 сезон 1-8 серии из 16) Жаркий сезон (Леонид Белозорович) [2018, детектив, комедия, WEBRip 720p]

4 | 0

12.59 ГБ




Вы не можете начинать темы
Вы не можете отвечать на сообщения
Вы не можете редактировать свои сообщения
Вы не можете удалять свои сообщения
Вы не можете добавлять вложения

Перейти:  
 Вход
ppkBB3cker v.2 © 2008-2014 @ PPK
[ Time : 0.030s | 15 Queries | GZIP : Off ]

cron