img image001 image001 image001 image001 image001 image001 image001 image001 image001 image001 image001 image001 image001 image001 image001 image001

Planets Sun Sun Sun
Статистика раздачи
Автор: Снежана | Размер: 25.03 ГБ | Добавлен: 10 июл 2018
Раздают: 14    Качают: 10
Скачать торрент
Скачать торрент
Описание торрента

СообщениеДобавлено: 10 июл 2018 

Пляж (2 сезон 1-16 серии из 16) Жаркий сезон

Перевод: Не требуется
Субтитры: отсутствуют
Формат: WEBRip 720p, MKV, H.264, AC3
Страна: Россия
Режиссер: Леонид Белозорович
Жанр: детектив, комедия
Всего серий: 16
Продолжительность: 16 x ~ 00:50:00
Год выпуска: 2018

В ролях: Павел Делонг, Георгий Дронов, Елена Аросьева, Мария Горбань, Юлия Харьковская, Екатерина Сапрыкина, Олег Метелев, Денис Доронин, Сергей Басок, Кристина Курбанова

Описание: Продолжение сериала "Пляж". Приятели продолжают патрулировать морское побережье и охранять покой отдыхающих. Но теперь Андрей Гошко берется еще и наладить работу в местном отделении полиции, которое погрязло в коррупции и скандалах. Да и его другу Сергею предстоит борьба с местными казнокрадами, проститутками и подпольными игорными заведениями, которые в сезон отпусков пытаются получить сверхприбыль на отдыхающих.



Видео: 1280x720p (16:9), 25,000 fps, MPEG4 AVC (x264), ~4300 Kbps avg, 0.187 bit/pixel
Аудио: 48 kHz, AC3, 2/0 (L,R) ch, ~192.00 kbps avg


Общее
Уникальный идентификатор : 222937403277301174944424778037686884129 (0xA7B82E9C1C7B586A81B954E09336D721)
Полное имя : F:\TREKER\ТЕМР\plyazh_zharkij_s02_[tfile.ru]\plyazh_zharkij_s02_e01_[tfile.ru].mkv
Формат : Matroska
Версия формата : Version 2
Размер файла : 1,57 Гбайт
Продолжительность : 50 м. 14 с.
Общий поток : 4486 Кбит/сек
Название фильма : plyazh_zharkij_s02_[tfile.ru]
Дата кодирования : UTC 2018-07-04 06:52:49
Программа кодирования : mkvmerge v4.0.0 ('The Stars were mine') сборка от Jun 6 2010 16:18:42
Библиотека кодирования : libebml v1.0.0 + libmatroska v1.0.0
Обложка : Yes
Attachments : cover.jpg

Видео
Идентификатор : 1
Формат : AVC
Формат/Информация : Advanced Video Codec
Профиль формата :
Параметр CABAC формата : Да
Параметр ReFrames формата : 6 кадров
Идентификатор кодека : V_MPEG4/ISO/AVC
Продолжительность : 50 м. 14 с.
Битрейт : 4300 Кбит/сек
Ширина : 1280 пикселей
Высота : 720 пикселей
Соотношение сторон : 16:9
Режим частоты кадров : Постоянный
Частота кадров : 25,000 кадров/сек
Цветовое пространство : YUV
Субдискретизация насыщенности : 4:2:0
Битовая глубина : 8 бит
Тип развёртки : Прогрессивная
Бит/(Пиксели*Кадры) : 0.187
Размер потока : 1,48 Гбайт (94%)
Библиотека кодирования : x264 core 146 r2538 121396c
Настройки программы : cabac=1 / ref=6 / deblock=1:-1:-1 / analyse=0x3:0x133 / me=umh / subme=10 / psy=1 / psy_rd=1.00:0.15 / mixed_ref=1 / me_range=24 / chroma_me=1 / trellis=2 / 8x8dct=1 / cqm=0 / deadzone=21,11 / fast_pskip=0 / chroma_qp_offset=-3 / threads=12 / lookahead_threads=1 / sliced_threads=0 / nr=0 / decimate=1 / interlaced=0 / bluray_compat=0 / constrained_intra=0 / bframes=3 / b_pyramid=2 / b_adapt=2 / b_bias=0 / direct=1 / weightb=1 / open_gop=0 / weightp=2 / keyint=250 / keyint_min=25 / scenecut=40 / intra_refresh=0 / rc_lookahead=50 / rc=abr / mbtree=1 / bitrate=4300 / ratetol=1.0 / qcomp=0.69 / qpmin=0 / qpmax=69 / qpstep=4 / ip_ratio=1.40 / aq=1:1.00
Default : Нет
Forced : Нет

Аудио
Идентификатор : 2
Формат : AC-3
Формат/Информация : Audio Coding 3
Расширение режима : CM (complete main)
Параметр Endianness формата : Big
Идентификатор кодека : A_AC3
Продолжительность : 50 м. 14 с.
Вид битрейта : Постоянный
Битрейт : 192 Кбит/сек
Каналы : 2 канала
Расположение каналов : Front: L R
Частота : 48,0 КГц
Частота кадров : 31,250 кадров/сек (1536 spf)
Битовая глубина : 16 бит
Метод сжатия : С потерями
Размер потока : 69,0 Мбайт (4%)
Default : Нет
Forced : Нет









Релиз от:

Релиз предоставлен сайтом tfile.me!!



   Похожие торренты   Торрент   Размер 
В этой теме нет новых непрочитанных сообщений. Пляж (2 сезон 1-12 серии из 16) Жаркий сезон (Леонид Белозорович) [2018, детектив, комедия, WEBRip 720p]

4 | 6

18.79 ГБ

В этой теме нет новых непрочитанных сообщений. Пляж (2 сезон 1-8 серии из 16) Жаркий сезон (Леонид Белозорович) [2018, детектив, комедия, WEBRip 720p]

4 | 0

12.59 ГБ

В этой теме нет новых непрочитанных сообщений. Пляж (2 сезон 1-8 серии из 16) Жаркий сезон (Леонид Белозорович) [2017, детектив, комедия, WEBRip]

172 | 27

5.08 ГБ

В этой теме нет новых непрочитанных сообщений. Пляж (2 сезон 1-8 серии из 16) Жаркий сезон (Леонид Белозорович) [2017, детектив, комедия, WEBRip-AVC]

0 | 1

6.17 ГБ

В этой теме нет новых непрочитанных сообщений. Пляж (2 сезон 1-16 серии из 16) Жаркий сезон (Леонид Белозорович) [2017, детектив, комедия, WEBRip]

94 | 11

10.15 ГБ

В этой теме нет новых непрочитанных сообщений. Пляж (2 сезон 1-16 серии из 16) Жаркий сезон (Леонид Белозорович) [2017, детектив, комедия, WEBRip-AVC]

14 | 4

12.27 ГБ

В этой теме нет новых непрочитанных сообщений. Пляж (2 сезон 1-8 серии из 16) Жаркий сезон (Леонид Белозорович) [2017, детектив, комедия, WEBRip 1080p]

15 | 4

17.34 ГБ




Вы не можете начинать темы
Вы не можете отвечать на сообщения
Вы не можете редактировать свои сообщения
Вы не можете удалять свои сообщения
Вы не можете добавлять вложения

Перейти:  
 Вход
ppkBB3cker v.2 © 2008-2014 @ PPK
[ Time : 0.020s | 15 Queries | GZIP : Off ]

cron