img image001 image001 image001 image001 image001 image001 image001 image001 image001 image001 image001 image001 image001 image001 image001 image001

Planets Sun Sun Sun
Статистика раздачи
Автор: Снежана | Размер: 15.06 ГБ | Добавлен: 16 июл 2018
Раздают: 48    Качают: 2
Скачать торрент
Скачать торрент
Описание торрента

СообщениеДобавлено: 16 июл 2018 

Частица вселенной (1-7 серии из 7)

Перевод: Не требуется, cубтитры: отсутствуют
Формат: HDTV, MPEG-TS, AVC, AC3/МР2
Страна: Россия
Режиссер: Алена Званцова
Жанр: драма
Всего серий: 7
Продолжительность: ~01:18:00 (1 серия), ~00:50:00 (2-7 серии)
Год выпуска: 2018
В ролях: Виктория Исакова, Алексей Макаров, Сергей Пускепалис, Алексей Агранович, Анна Михалкова, Владимир Яглыч, Яна Гладких, Александра Бортич, Сергей Походаев, Елена Прудникова, Яна Сексте, Казимир Лиске, Андрей Смирнов, Микаэл Джанибекян, Сергей Шеховцов, Глеб Подгородинский, Дмитрий Куличков, Евгений Гришковец, Арина Нестерова, Алёна Лаптева, Тимур Бадалбейли, Александр Резалин, Сергей Юшкевич, Мадлен Джабраилова, София Сливина, Сергей Австриевских, Юрий Чигров
Описание:
Это история о настоящих Героях. Которые живут здесь и сейчас. И на которых хочется быть похожими. Это история о настоящих Женщинах, которые умеют ждать. О людях, которые работают на космос в ЦУПе и Звёздном, на Байконуре и в институте космической медицины. Это кино о Подвиге, настоящей мужской дружбе и большой любви. О том, чего нам в этой жизни так не хватает...



Видео: 1920x1080 (16:9), 25.000 fps, AVC H264, ~4834 kbps avg, 0.093 bit/pixel
Аудио#1: 48 kHz, АС3, 2 ch, (Front: L C R, Side: L R, LFE)~384.00 kbps avg
Аудио#2: 48 kHz, MPEG Layer 2, 2 ch, ~192.00 kbps avg

Доп. информация:
Спасибо автору релиза olegka7373

General
ID : 1 (0x1)
Complete name : D:\Chastica vselennoj.HDTV(1080i).GeneralFilm\01.Chastica vselennoj.HDTV(1080i).GeneralFilm.ts
Format : MPEG-TS
File size : 3.12 GiB
Duration : 1h 18mn
Overall bit rate mode : Variable
Overall bit rate : 5 697 Kbps

Video
ID : 1904 (0x770)
Menu ID : 80 (0x50)
Format : AVC
Format/Info : Advanced Video Codec
Format profile :
Format settings, CABAC : Yes
Format settings, ReFrames : 3 frames
Codec ID : 27
Duration : 1h 18mn
Bit rate : 4 834 Kbps
Width : 1 920 pixels
Height : 1 080 pixels
Display aspect ratio : 16:9
Frame rate : 25.000 fps
Standard : Component
Color space : YUV
Chroma subsampling : 4:2:0
Bit depth : 8 bits
Scan type : Interlaced
Scan order : Top Field First
Bits/(Pixel*Frame) : 0.093
Stream size : 2.64 GiB (85%)
Color primaries : BT.709
Transfer characteristics : BT.709
Matrix coefficients : BT.709

Audio #1
ID : 2904 (0xB58)
Menu ID : 80 (0x50)
Format : AC-3
Format/Info : Audio Coding 3
Mode extension : CM (complete main)
Format settings, Endianness : Big
Codec ID : 6
Duration : 1h 18mn
Bit rate mode : Constant
Bit rate : 384 Kbps
Channel count : 6 channels
Channel positions : Front: L C R, Side: L R, LFE
Sampling rate : 48.0 KHz
Bit depth : 16 bits
Compression mode : Lossy
Delay relative to video : -120ms
Stream size : 215 MiB (7%)
Language : Russian

Audio #2
ID : 2905 (0xB59)
Menu ID : 80 (0x50)
Format : MPEG Audio
Format version : Version 1
Format profile : Layer 2
Codec ID : 3
Duration : 1h 18mn
Bit rate mode : Constant
Bit rate : 192 Kbps
Channel count : 2 channels
Sampling rate : 48.0 KHz
Compression mode : Lossy
Delay relative to video : -120ms
Stream size : 108 MiB (3%)
Language : Russia






   Похожие торренты   Торрент   Размер 
В этой теме нет новых непрочитанных сообщений. Частица вселенной (1-7 серии из 7) (Алена Званцова) [2018, драма, HDTVRip]

62 | 6

5.28 ГБ

В этой теме нет новых непрочитанных сообщений. Частица вселенной (1- серии из 8) (Алена Званцова) [2018, драма, HDTVRip]

3 | 0

1.09 ГБ

В этой теме нет новых непрочитанных сообщений. Частица вселенной (1-3 серии из 7) (Алена Званцова) [2018, драма, HDTVRip]

29 | 0

2.52 ГБ

В этой теме нет новых непрочитанных сообщений. Частица вселенной (1-5 серии из 7) (Алена Званцова) [2017, драма, WEB-DL 720p]

1 | 0

6.51 ГБ

В этой теме нет новых непрочитанных сообщений. Частица вселенной (1-7 серии из 7) (Алена Званцова) [2017, драма, WEB-DLRip]

31 | 1

4.92 ГБ

В этой теме нет новых непрочитанных сообщений. Частица вселенной (1-3 серии из 7) (Алена Званцова) [2017, драма, WEB-DL 720p]

2 | 0

4.2 ГБ

В этой теме нет новых непрочитанных сообщений. Частица вселенной (1-7 серии из 7) (Алена Званцова) [2017, драма, SATRip-AVC]

9 | 0

4.74 ГБ




Вы не можете начинать темы
Вы не можете отвечать на сообщения
Вы не можете редактировать свои сообщения
Вы не можете удалять свои сообщения
Вы не можете добавлять вложения

Перейти:  
 Вход
ppkBB3cker v.2 © 2008-2014 @ PPK
[ Time : 0.033s | 15 Queries | GZIP : Off ]

cron