img image001 image001 image001 image001 image001 image001 image001 image001 image001 image001 image001 image001 image001 image001 image001 image001

Planets Sun Sun Sun
Статистика раздачи
Автор: Снежана | Размер: 7.67 ГБ | Добавлен: 16 июл 2018
Раздают: 31    Качают: 5
Скачать торрент
Скачать торрент
Описание торрента

СообщениеДобавлено: 16 июл 2018 

Апостол (1-12 серии из 12)

Перевод: Не требуется, cубтитры: отсутствуют
Формат: DVDRip-AVC, MKV, H.264, AC3
Страна: Россия
Режиссер: Юрий Мороз, Николай Лебедев (IV), Геннадий Сидоров
Жанр: боевик, военный
Всего серий: 12
Продолжительность: 12 x ~ 00:45:00
Год выпуска: 2008
В ролях: Евгений Миронов, Николай Фоменко, Дарья Мороз, Андрей Смирнов, Лариса Малеванная, Юрий Назаров, Алёна Бабенко, Михаил Федоровский (II), Сергей Быстрицкий, Александр Новин, Юозас Будрайтис, Алексей Комашко, Рамиль Сабитов, Александр Баширов, Инна Франскевич, Вячеслав Амирханян, Карэн Бадалов, Роман Артемьев, Андрей Молотков, Юрий Гурьев, Максим Важов, Сергей Легостаев, Леонид Окунев, Андрей Гусев, Александр Романенко (II), Олег Ринге, Валентина Березуцкая, Ольга Блок-Миримская, Андрей Шорин, Сергей Шорин, Евдокия Межевия, Евгений Чудаков, Михаил Панюков, Анатолий Паников, Владимир Калисанов, Игорь Ларин (II), Сергей Терещенко, Сергей Сосновский, Йенс Хартман, Александр Аншютц, Эдуард Штайнер, Алла Малкова, Артём Шевченко, Олег Шапко, Виктор Павлюченков, Оксана Горностаева
Описание:
В начале войны немцы забрасывают в СССР своего диверсанта. Высадка происходит неудачно - шпиона захватывает НКВД. При попытке побега диверсант, оказавшийся русским вором в законе, случайно оставшимся на оккупированной территории, погибает. Чтобы найти остальных шпионов, участвующих в операции, чекистам приходится обратиться к брату-близнецу преступника - сельскому учителю. Тот занимает место покойного в немецкой агентурной сети и вступает в смертельно опасную игру.



Видео: 692x434@738x434 (1.70:1), 25 fps, AVC Н.264 ~1600 kbps avg, 0.213 bit/pixel
Аудио: 48 kHz, АС3, 6 ch, (Front: L C R, Side: L R, LFE) ~448.00 kbps avg

Общее
Уникальный идентификатор : 212879413479909892359804292952002413305 (0xA027156D21811F1CB59BDCCB2B3042F9)
Полное имя : D:\Ф А Й Л Ы\Апостол (2008)\03 серия.mkv
Формат : Matroska
Версия формата : Version 2
Размер файла : 634 Мбайт
Продолжительность : 43 м. 13 с.
Общий поток : 2050 Кбит/сек
Дата кодирования : UTC 2017-05-27 08:28:11
Программа кодирования : mkvmerge v7.8.0 ('River Man') 32bit built on Apr 3 2015 12:11:22
Библиотека кодирования : libebml v1.3.1 + libmatroska v1.4.2

Видео
Идентификатор : 1
Формат : AVC
Формат/Информация : Advanced Video Codec
Профиль формата :
Параметр CABAC формата : Да
Параметр ReFrames формата : 15 кадров
Идентификатор кодека : V_MPEG4/ISO/AVC
Продолжительность : 43 м. 13 с.
Битрейт : 1600 Кбит/сек
Ширина : 692 пикселя
Высота : 434 пикселя
Соотношение сторон : 1,700
Соотношение сторон в оригинале : 1,701
Режим частоты кадров : Постоянный
Частота кадров : 25,000 кадров/сек
Цветовое пространство : YUV
Субдискретизация насыщенности : 4:2:0
Битовая глубина : 8 бит
Тип развёртки : Прогрессивная
Бит/(Пиксели*Кадры) : 0.213
Размер потока : 482 Мбайт (76%)
Библиотека кодирования : x264 core 148 r2744kMod b97ae06
Настройки программы : cabac=1 / ref=15 / deblock=1:-2:-2 / analyse=0x3:0x133 / me=umh / subme=10 / psy=1 / fade_compensate=0.00 / psy_rd=1.05:0.10 / mixed_ref=1 / me_range=32 / chroma_me=1 / trellis=2 / 8x8dct=1 / cqm=0 / deadzone=21,11 / fast_pskip=0 / chroma_qp_offset=-3 / threads=6 / lookahead_threads=1 / sliced_threads=0 / nr=0 / decimate=0 / interlaced=0 / bluray_compat=0 / constrained_intra=0 / bframes=8 / b_pyramid=2 / b_adapt=2 / b_bias=0 / direct=3 / weightb=1 / open_gop=0 / weightp=2 / keyint=250 / keyint_min=25 / scenecut=40 / intra_refresh=0 / rc=2pass / mbtree=0 / bitrate=1600 / ratetol=1.0 / qcomp=0.63 / qpmin=0 / qpmax=39 / qpstep=4 / cplxblur=20.0 / qblur=0.5 / ip_ratio=1.15 / pb_ratio=1.30 / aq=1:1.00
Язык : Russian
Default : Да
Forced : Нет
Цветовой диапазон : Limited
Основные цвета : BT.601 PAL
Характеристики трансфера : BT.470 System B, BT.470 System G
Коэффициенты матрицы : BT.601

Аудио
Идентификатор : 2
Формат : AC-3
Формат/Информация : Audio Coding 3
Параметр Endianness формата : Big
Идентификатор кодека : A_AC3
Продолжительность : 43 м. 13 с.
Вид битрейта : Постоянный
Битрейт : 448 Кбит/сек
Каналы : 6 каналов
Расположение каналов : Front: L C R, Side: L R, LFE
Частота : 48,0 КГц
Частота кадров : 31,250 кадров/сек (1536 spf)
Битовая глубина : 16 бит
Метод сжатия : С потерями
Размер потока : 138 Мбайт (22%)
Язык : Russian
ServiceKind/String : Complete Main
Default : Да
Forced : Нет










   Похожие торренты   Торрент   Размер 
В этой теме нет новых непрочитанных сообщений. Штрафбат (11 серий из 11) (Николай Досталь) [2004, боевик, драма, военный, DVDRip-AVC]

17 | 0

7.19 ГБ

В этой теме нет новых непрочитанных сообщений. Инквизитор (1-12 серии из 12) (Юрий Мороз) [2014, детектив, триллер, WEB-DLRip-AVC]

366 | 71

7.52 ГБ

В этой теме нет новых непрочитанных сообщений. Инквизитор (1-12 серии из 12) (Юрий Мороз) [2014, детектив, триллер, WEB-DL 1080p]

90 | 26

17.64 ГБ

В этой теме нет новых непрочитанных сообщений. Игрок (1 сезон: 1-12 серии из 12) (Юрий Мороз) [2016, криминал, драма, SATRip]

471 | 74

8.74 ГБ

В этой теме нет новых непрочитанных сообщений. Бригада (1-15 серии из 15) (Алексей Сидоров) [2002, криминал, драма, триллер, боевик, WEBRip-AVC]

41 | 3

27.06 ГБ

В этой теме нет новых непрочитанных сообщений. Ялта-45 (1-4 серии из 4) (Тигран Кеосаян) [2011, боевик, военный, DVDRip]

105 | 9

2.74 ГБ

В этой теме нет новых непрочитанных сообщений. Штрафбат (11 серий из 11) (Николай Досталь) [2004, боевик, драма, военный, WEB-DL 720p]

79 | 50

16.78 ГБ




Вы не можете начинать темы
Вы не можете отвечать на сообщения
Вы не можете редактировать свои сообщения
Вы не можете удалять свои сообщения
Вы не можете добавлять вложения

Перейти:  
 Вход
ppkBB3cker v.2 © 2008-2014 @ PPK
[ Time : 0.043s | 15 Queries | GZIP : Off ]

cron