img image001 image001 image001 image001 image001 image001 image001 image001 image001 image001 image001 image001 image001 image001 image001 image001

Planets Sun Sun Sun
Статистика раздачи
Автор: Снежана | Размер: 10.61 ГБ | Добавлен: 20 июл 2018
Раздают: 38    Качают: 5
Скачать торрент
Скачать торрент
Описание торрента

СообщениеДобавлено: 20 июл 2018 

Старушки в бегах (1-8 серии из 8)

Перевод: Не требуется, cубтитры: отсутствуют
Формат: HDTVRip 720p, AVI, XviD, AC3
Страна: Россия
Режиссер: Алексей Колмогоров
Жанр: комедия, мелодрама
Всего серий: 8
Продолжительность: 8 х ~ 00:50:00
Год выпуска: 2018

В ролях: Елена Сафонова, Татьяна Орлова, Марина Яковлева, Сергей Баталов, Дмитрий Богданов, Алёна Коломина, Галина Беляева, Сергей Загребнев, Вячеслав Манучаров, Евгения Серебренникова, Вера Воронкова, Александр Лобанов (III), Александра Булычёва, Антон Батырев, Алеса Качер, Максим Литовченко, Константин Стрельников, Татьяна Андреева, Сергей Афанасьев, Григорий Багров, Мария Букнис, Виталий Вашедский, Ксения Иванова, Александр Касаткин (II), Игорь Ларин (II), Дарья Лузина, Андрей Лукьянов, Игорь Несветаев, Антон Капанин, Александра Ровенских, Илья Роговин, Анастасия Рысева, Ирма Сафенкова, Наталья Унгард, Анастасия Фурса, Алексей Шаранин, Юлия Юрченко, Анатолий Наумов (II)

Описание: Три подруги Зина, Лида и Катя живут вместе со своими взрослыми детьми. Вечный «квартирный вопрос» переплетается с такой же вечной темой «отцов и детей». И в один прекрасный день дамы решают уехать и освободить своих детей от накопившихся проблем…

Рейтинг и доп. информация:


Видео: 1280x720 (16:9), 25 fps, AVC MPEG-4 (x264), ~ 3500 kbps avg, 0.152 bit/pixel
Аудио: 48 kHz, AC3, 2/0 (L,R) ch, ~192.00 kbps avg
Общее
Уникальный идентификатор : 187486949847115279679471901569332104389 (0x8D0CAC4F938B986D9BE1D46EE6994CC5)
Полное имя : C:\Starushki v begah.HDTVRip.(720p).GeneralFilm\01.Starushki v begah.HDTVRip.(720p).GeneralFilm.mkv
Формат : Matroska
Версия формата : Version 2
Размер файла : 1,32 Гбайт
Продолжительность : 51 м. 21 с.
Общий поток : 3693 Кбит/сек
Дата кодирования : UTC 2018-07-16 17:10:32
Программа кодирования : mkvmerge v6.1.0 ('Old Devil') built on Mar 4 2013 09:10:42
Библиотека кодирования : libebml v1.3.0 + libmatroska v1.4.0

Видео
Идентификатор : 1
Формат : AVC
Формат/Информация : Advanced Video Codec
Профиль формата :
Настройки формата : CABAC / 9 Ref Frames
Параметр CABAC формата : Да
Параметр RefFrames формата : 9 кадров
Идентификатор кодека : V_MPEG4/ISO/AVC
Продолжительность : 51 м. 21 с.
Битрейт : 3500 Кбит/сек
Ширина : 1280 пикселей
Высота : 720 пикселей
Соотношение сторон : 16:9
Режим частоты кадров : Постоянный
Частота кадров : 25,000 кадров/сек
Цветовое пространство : YUV
Субдискретизация насыщенности : 4:2:0
Битовая глубина : 8 бит
Тип развёртки : Прогрессивная
Бит/(Пиксели*Кадры) : 0.152
Размер потока : 1,23 Гбайт (93%)
Библиотека кодирования : x264 core 130 r2273 b3065e6
Настройки программы : cabac=1 / ref=9 / deblock=1:-2:-1 / analyse=0x3:0x133 / me=umh / subme=9 / psy=1 / psy_rd=1.00:0.15 / mixed_ref=1 / me_range=32 / chroma_me=1 / trellis=2 / 8x8dct=1 / cqm=0 / deadzone=21,11 / fast_pskip=0 / chroma_qp_offset=-3 / threads=18 / lookahead_threads=3 / sliced_threads=0 / nr=0 / decimate=0 / interlaced=0 / bluray_compat=0 / constrained_intra=0 / bframes=9 / b_pyramid=2 / b_adapt=2 / b_bias=0 / direct=3 / weightb=1 / open_gop=0 / weightp=2 / keyint=250 / keyint_min=25 / scenecut=40 / intra_refresh=0 / rc=2pass / mbtree=0 / bitrate=3500 / ratetol=1.0 / qcomp=0.60 / qpmin=0 / qpmax=69 / qpstep=4 / cplxblur=20.0 / qblur=0.5 / ip_ratio=1.40 / pb_ratio=1.30 / aq=2:1.00
Default : Да
Forced : Нет
Цветовой диапазон : Limited
Основные цвета : BT.709
Характеристики трансфера : BT.709
Коэффициенты матрицы : BT.709

Аудио
Идентификатор : 2
Формат : AC-3
Формат/Информация : Audio Coding 3
Идентификатор кодека : A_AC3
Продолжительность : 51 м. 21 с.
Вид битрейта : Постоянный
Битрейт : 192 Кбит/сек
Каналы : 2 канала
Расположение каналов : Front: L R
Частота : 48,0 КГц
Частота кадров : 31,250 кадров/сек (1536 SPF)
Битовая глубина : 16 бит
Метод сжатия : С потерями
Размер потока : 70,5 Мбайт (5%)
ServiceKind/String : Complete Main
Default : Да
Forced : Нет








   Похожие торренты   Торрент   Размер 
В этой теме нет новых непрочитанных сообщений. Старушки в бегах (1-4 серии из 8) (Алексей Колмогоров) [2018, комедия, мелодрама, HDTVRip 720p]

7 | 1

5.3 ГБ

В этой теме нет новых непрочитанных сообщений. Старушки в бегах (1-2 серии из 8) (Алексей Колмогоров) [2018, комедия, мелодрама, HDTVRip 720p]

3 | 0

2.65 ГБ

В этой теме нет новых непрочитанных сообщений. Старушки в бегах (1-8 серии из 8) (Алексей Колмогоров) [2018, комедия, мелодрама, HDTVRip]

355 | 62

5.74 ГБ

В этой теме нет новых непрочитанных сообщений. Старушки в бегах (1-2 серии из 8) (Алексей Колмогоров) [2018, комедия, мелодрама, HDTVRip]

0 | 0

1.44 ГБ

В этой теме нет новых непрочитанных сообщений. Старушки в бегах (1-4 серии из 8) (Алексей Колмогоров) [2018, комедия, мелодрама, HDTVRip]

70 | 14

2.87 ГБ

В этой теме нет новых непрочитанных сообщений. Старушки в бегах (1-6 серии из 8) (Алексей Колмогоров) [2018, комедия, мелодрама, HDTVRip]

15 | 3

4.31 ГБ

В этой теме нет новых непрочитанных сообщений. Старушки в бегах (1-6 серии из 8) (Алексей Колмогоров) [2018, комедия, мелодрама, WEB-DL 720p]

1 | 4

7.13 ГБ




Вы не можете начинать темы
Вы не можете отвечать на сообщения
Вы не можете редактировать свои сообщения
Вы не можете удалять свои сообщения
Вы не можете добавлять вложения

Перейти:  
 Вход
ppkBB3cker v.2 © 2008-2014 @ PPK
[ Time : 0.050s | 15 Queries | GZIP : Off ]

cron