img image001 image001 image001 image001 image001 image001 image001 image001 image001 image001 image001 image001 image001 image001 image001 image001

Planets Sun Sun Sun
Статистика раздачи
Автор: Снежана | Размер: 21.86 ГБ | Добавлен: 20 июл 2018
Раздают: 36    Качают: 35
Скачать торрент
Скачать торрент
Описание торрента

СообщениеДобавлено: 20 июл 2018 

Старушки в бегах (1-8 серии из 8)

Перевод: Не требуется, cубтитры: отсутствуют
Формат: HDTV 1080i, MPEG-TS, H.264, AC3/MP2
Страна: Россия
Режиссер: Алексей Колмогоров
Жанр: комедия, мелодрама
Всего серий: 8
Продолжительность: 8 х ~ 00:50:00
Год выпуска: 2018

В ролях: Елена Сафонова, Татьяна Орлова, Марина Яковлева, Сергей Баталов, Дмитрий Богданов, Алёна Коломина, Галина Беляева, Сергей Загребнев, Вячеслав Манучаров, Евгения Серебренникова, Вера Воронкова, Александр Лобанов (III), Александра Булычёва, Антон Батырев, Алеса Качер, Максим Литовченко, Константин Стрельников, Татьяна Андреева, Сергей Афанасьев, Григорий Багров, Мария Букнис, Виталий Вашедский, Ксения Иванова, Александр Касаткин (II), Игорь Ларин (II), Дарья Лузина, Андрей Лукьянов, Игорь Несветаев, Антон Капанин, Александра Ровенских, Илья Роговин, Анастасия Рысева, Ирма Сафенкова, Наталья Унгард, Анастасия Фурса, Алексей Шаранин, Юлия Юрченко, Анатолий Наумов (II)

Описание: Три подруги Зина, Лида и Катя живут вместе со своими взрослыми детьми. Вечный «квартирный вопрос» переплетается с такой же вечной темой «отцов и детей». И в один прекрасный день дамы решают уехать и освободить своих детей от накопившихся проблем…

Рейтинг и доп. информация:


Видео: 1920х1080, (16:9), 25 fps, AVC MPEG-TS (x264), High@L4 ~ 6000 kbps avg, 0.119 bit/pixel
Аудио #1: Русский: 48 kHz, AC3 Dolby Digital, 3/2 (L,C,R,l,r) + LFE ch, ~384.00 kbps avg
Аудио #2: Русский: 48 kHz, MPEG Layer 2, 2 ch, ~192.00 kbps avg
Общее
Идентификатор : 1 (0x1)
Полное имя : C:\Users\User\Desktop\Новая папка\Starushki v begah.HDTV(1080i).GeneralFilm\01.Starushki v begah.HDTV(1080i).GeneralFilm.ts
Формат : MPEG-TS
Размер файла : 2,55 Гбайт
Продолжительность : 51 м. 21 с.
Режим общего битрейта : Переменный
Общий поток : 7107 Кбит/сек

Видео
Идентификатор : 1904 (0x770)
Идентификатор меню : 80 (0x50)
Формат : AVC
Формат/Информация : Advanced Video Codec
Профиль формата : High@L4
Настройки формата : CABAC / 3 Ref Frames
Параметр CABAC формата : Да
Параметр RefFrames формата : 3 кадра
Идентификатор кодека : 27
Продолжительность : 51 м. 21 с.
Битрейт : 6000 Кбит/сек
Ширина : 1920 пикселей
Высота : 1080 пикселей
Соотношение сторон : 16:9
Частота кадров : 25,000 кадров/сек
Стандарт вещания : Component
Цветовое пространство : YUV
Субдискретизация насыщенности : 4:2:0
Битовая глубина : 8 бит
Тип развёртки : Чересстрочная
Метод сохранения типа развёртки : Раздельные поля
Порядок развёртки : Верхнее поле первое
Бит/(Пиксели*Кадры) : 0.119
Размер потока : 2,21 Гбайт (87%)
Цветовой диапазон : Limited
Основные цвета : BT.709
Характеристики трансфера : BT.709
Коэффициенты матрицы : BT.709

Аудио #1
Идентификатор : 2904 (0xB58)
Идентификатор меню : 80 (0x50)
Формат : AC-3
Формат/Информация : Audio Coding 3
Идентификатор кодека : 6
Продолжительность : 51 м. 21 с.
Вид битрейта : Постоянный
Битрейт : 384 Кбит/сек
Каналы : 6 каналов
Расположение каналов : Front: L C R, Side: L R, LFE
Частота : 48,0 КГц
Частота кадров : 31,250 кадров/сек (1536 SPF)
Битовая глубина : 16 бит
Метод сжатия : С потерями
Задержка видео : -40 мс.
Размер потока : 141 Мбайт (5%)
Язык : Russian
ServiceKind/String : Complete Main

Аудио #2
Идентификатор : 2905 (0xB59)
Идентификатор меню : 80 (0x50)
Формат : MPEG Audio
Версия формата : Version 1
Профиль формата : Layer 2
Идентификатор кодека : 3
Продолжительность : 51 м. 21 с.
Вид битрейта : Постоянный
Битрейт : 192 Кбит/сек
Каналы : 2 канала
Частота : 48,0 КГц
Частота кадров : 41,667 кадра/сек (1152 SPF)
Метод сжатия : С потерями
Задержка видео : -40 мс.
Размер потока : 70,5 Мбайт (3%)
Язык : Russian








   Похожие торренты   Торрент   Размер 
В этой теме нет новых непрочитанных сообщений. Старушки в бегах (1-2 серии из 8) (Алексей Колмогоров) [2018, комедия, мелодрама, HDTV 1080i]

23 | 0

5.26 ГБ

В этой теме нет новых непрочитанных сообщений. Старушки в бегах (1-6 серии из 8) (Алексей Колмогоров) [2018, комедия, мелодрама, HDTV 1080i]

17 | 1

16.1 ГБ

В этой теме нет новых непрочитанных сообщений. Старушки в бегах (1-4 серии из 8) (Алексей Колмогоров) [2018, комедия, мелодрама, HDTV 1080i]

16 | 0

10.74 ГБ

В этой теме нет новых непрочитанных сообщений. Старушки в бегах (1-4 серии из 8) (Алексей Колмогоров) [2018, комедия, мелодрама, WEB-DL 1080p]

0 | 0

7.03 ГБ

В этой теме нет новых непрочитанных сообщений. Старушки в бегах (1-8 серии из 8) (Алексей Колмогоров) [2018, комедия, мелодрама, WEB-DL 720p]

10 | 0

9.49 ГБ

В этой теме нет новых непрочитанных сообщений. Старушки в бегах (1-4 серии из 8) (Алексей Колмогоров) [2018, комедия, мелодрама, HDTVRip]

70 | 14

2.87 ГБ

В этой теме нет новых непрочитанных сообщений. Старушки в бегах (1-8 серии из 8) (Алексей Колмогоров) [2018, комедия, мелодрама, HDTVRip]

355 | 62

5.74 ГБ




Вы не можете начинать темы
Вы не можете отвечать на сообщения
Вы не можете редактировать свои сообщения
Вы не можете удалять свои сообщения
Вы не можете добавлять вложения

Перейти:  
 Вход
ppkBB3cker v.2 © 2008-2014 @ PPK
[ Time : 0.039s | 16 Queries | GZIP : Off ]

cron