img image001 image001 image001 image001 image001 image001 image001 image001 image001 image001 image001 image001 image001 image001 image001 image001

Planets Sun Sun Sun
Статистика раздачи
Автор: Снежана | Размер: 9.49 ГБ | Добавлен: 23 июл 2018
Раздают: 10    Качают: 0
Скачать торрент
Скачать торрент
Описание торрента

СообщениеДобавлено: 23 июл 2018 

Старушки в бегах (1-8 серии из 8)


Перевод: Не требуется
Cубтитры: отсутствуют
Формат: WEB-DL, MKV, H.264, AC3
Страна: Россия
Режиссер: Алексей Колмогоров
Жанр: комедия, мелодрама
Всего серий: 8
Продолжительность: 8 х ~ 00:50:00
Год выпуска: 2018

В ролях: Елена Сафонова, Татьяна Орлова, Марина Яковлева, Галина Беляева, Сергей Баталов, Дмитрий Богданов, Алёна Коломина, Евгения Серебренникова, Сергей Загребнев, Вячеслав Манучаров, Александра Булычёва, Вера Воронкова, Анатолий Наумов (II), Алеса Качер, Наталья Унгард, Антон Батырев, Юлия Юрченко, Максим Литовченко, Константин Стрельников, Ксения Иванова, Александр Касаткин (II), Пётр Кудряшов, Дарья Лузина, Ирма Сафенкова, Александра Ровенских

Описание: Три подруги Зина, Лида и Катя живут вместе со своими взрослыми детьми. Вечный «квартирный вопрос» переплетается с такой же вечной темой «отцов и детей». И в один прекрасный день дамы решают уехать и освободить своих детей от накопившихся проблем…



Видео: 1280x720p (16:9), 25.000 fps, AVC MPEG-4 (x264), ~ 3 022 Кбит/сек, 0.131 bit/pixel
Аудио: 48 kHz, AC3 Dolby Digital, 2/0 (L,R) ch, ~192.00 kbps avg








Общее
Уникальный идентификатор : 180969625214682733943009397973680337231 (0x88257B65D46D1B36B7185FB5664F314F)
Полное имя : E:\Закачка-2\Starushki.v.begah.2018.WEB-DL.(720p).Getty\Starushki.v.begah.e01.2018.WEB-DL.(720p).Getty.mkv
Формат : Matroska
Версия формата : Version 4 / Version 2
Размер файла : 1,19 Гбайт
Продолжительность : 51 м.
Режим общего битрейта : Постоянный
Общий поток : 3280 Кбит/сек
Название фильма : Starushki.v.begah.e01.2018.WEB-DL.(720p).Getty
Дата кодирования : UTC 2018-07-16 19:04:52
Программа кодирования : mkvmerge v7.8.0 ('River Man') 32bit built on Mar 27 2015 16:18:02
Библиотека кодирования : libebml v1.3.1 + libmatroska v1.4.2

Видео
Идентификатор : 1
Формат : AVC
Формат/Информация : Advanced Video Codec
Профиль формата :
Параметр CABAC формата : Да
Параметр ReFrames формата : 4 кадра
Идентификатор кодека : V_MPEG4/ISO/AVC
Продолжительность : 51 м.
Вид битрейта : Постоянный
Битрейт : 3022 Кбит/сек
Номинальный битрейт : 3200 Кбит/сек
Ширина : 1280 пикселей
Высота : 720 пикселей
Соотношение сторон : 16:9
Режим частоты кадров : Постоянный
Частота кадров : 25,000 кадров/сек
Цветовое пространство : YUV
Субдискретизация насыщенности : 4:2:0
Битовая глубина : 8 бит
Тип развёртки : Прогрессивная
Бит/(Пиксели*Кадры) : 0.131
Размер потока : 1,10 Гбайт (92%)
Default : Да
Forced : Нет

Аудио
Идентификатор : 2
Формат : AC-3
Формат/Информация : Audio Coding 3
Расширение режима : CM (complete main)
Параметр Endianness формата : Big
Идентификатор кодека : A_AC3
Продолжительность : 51 м.
Вид битрейта : Постоянный
Битрейт : 192 Кбит/сек
Каналы : 2 канала
Расположение каналов : Front: L R
Частота : 48,0 КГц
Частота кадров : 31,250 кадров/сек (1536 spf)
Метод сжатия : С потерями
Размер потока : 71,3 Мбайт (6%)
Default : Да
Forced : Нет






   Похожие торренты   Торрент   Размер 
В этой теме нет новых непрочитанных сообщений. Старушки в бегах (1-2 серии из 8) (Алексей Колмогоров) [2018, комедия, мелодрама, WEB-DL 720p]

0 | 0

2.38 ГБ

В этой теме нет новых непрочитанных сообщений. Старушки в бегах (1-4 серии из 8) (Алексей Колмогоров) [2018, комедия, мелодрама, WEB-DL 720p]

0 | 0

4.76 ГБ

В этой теме нет новых непрочитанных сообщений. Старушки в бегах (1-8 серии из 8) (Алексей Колмогоров) [2018, комедия, мелодрама, WEB-DL 720p]

24 | 6

9.5 ГБ

В этой теме нет новых непрочитанных сообщений. Старушки в бегах (1-6 серии из 8) (Алексей Колмогоров) [2018, комедия, мелодрама, WEB-DL 720p]

1 | 4

7.13 ГБ

В этой теме нет новых непрочитанных сообщений. Старушки в бегах (1-2 серии из 8) (Алексей Колмогоров) [2018, комедия, мелодрама, WEB-DL 720p]

19 | 6

2.38 ГБ

В этой теме нет новых непрочитанных сообщений. Старушки в бегах (1-8 серии из 8) (Алексей Колмогоров) [2018, комедия, мелодрама, HDTVRip 720p]

38 | 5

10.61 ГБ

В этой теме нет новых непрочитанных сообщений. Старушки в бегах (1-4 серии из 8) (Алексей Колмогоров) [2018, комедия, мелодрама, HDTVRip 720p]

7 | 1

5.3 ГБ




Вы не можете начинать темы
Вы не можете отвечать на сообщения
Вы не можете редактировать свои сообщения
Вы не можете удалять свои сообщения
Вы не можете добавлять вложения

Перейти:  
 Вход
ppkBB3cker v.2 © 2008-2014 @ PPK
[ Time : 0.046s | 16 Queries | GZIP : Off ]

cron