img image001 image001 image001 image001 image001 image001 image001 image001 image001 image001 image001 image001 image001 image001 image001 image001

Planets Sun Sun Sun
Статистика раздачи
Автор: Снежана | Размер: 5.38 ГБ | Добавлен: 08 авг 2018
Раздают: 71    Качают: 17
Скачать торрент
Скачать торрент
Описание торрента

СообщениеДобавлено: 08 авг 2018 

Автошкола (1-8 серии из 8)

Перевод: Не требуется, cубтитры: отсутствуют
Формат: HDTVRip-AVC, MKV, H.264, AC3
Страна: Беларусь
Режиссер: Сергей Гиргель
Жанр: комедия
Всего серий: 8
Продолжительность: 8 х ~ 00:44:00
Год выпуска: 2016

В ролях: Михаил Тарабукин, Ольга Веникова, Александра Булычева, Дмитрий Астрахан, Анна Семенович, Андрей Карако, Иван Васильев, Евгений Булка, Мария Бидула, Виктор Васильев, Олег Ткачев, Валерий Зеленский, Сергей Пукита, Александр Ткаченок, Светлана Суховей, Валерия Арланова, Алексей Яровенко, Руслан Чернецкий, Елена Дубровская, Людмила Малеева, Леся Кодуш, Михаил Есьман, Анна Семенович

Описание: «Автошкола» – специализированное учебное заведение, осуществляющее подготовку заинтересованных лиц к сдаче экзаменов на право управления транспортом. Все банально и просто на первый взгляд, но именно здесь кипят настоящие страсти и вершатся судьбы. Героями сериала становятся и курсанты, и сотрудники автошколы «Крутой вираж», каждый со своими интересами и смешными до слез историями. Молодому и целеустремленному инструктору Ивану достается безнадежная курсантка Маша, в которую он влюбляется с первого взгляда. Обучая ее вождению и правилам дорожного движения, Иван сам постигает правила жизни, результат которых – сдача экзамена «на счастье».

Рейтинг и доп. информация:


Видео: 1024x576 (16:9), 25 fps, AVC MPEG-4 (x264), ~ 2000 kbps , 0.136 bit/pixel
Аудио: 48 kHz, АС3, 2/0 (L,R), ~192.00 kbps avg
Для съемок сериала были приглашены профессиональные белорусские каскадеры, которые выполняли трюки. Однако, как отметила Светлана Городнева, Олег Ткачев решился сам выполнять опасные элементы в сериале. Музыкальное сопровождение картины выполнил белорусский коллектив "Без билета". Сегодня прорабатываются вопросы прокатной политики сериала. Кинопроект ООО "Синетехно" "Автошкола" стал победителем открытого республиканского конкурса кинопроектов на производство фильмов по социально-творческим заказам по теме "Об актуальных социальных проблемах жизни современной Беларуси".
Общее
Уникальный идентификатор : 217374398859693548895773953210430483134 (0xA388C950E6BB7864A9E21EFDB6976ABE)
Полное имя : C:\Avtoshkola.(2016).HDTVRip.(AVC).Files-x\01.Автошкола.(2016).HDTVRip.AVC.by.Серый1779.Files-x.mkv
Формат : Matroska
Версия формата : Version 2
Размер файла : 688 Мбайт
Продолжительность : 43 м. 52 с.
Общий поток : 2193 Кбит/сек
Дата кодирования : UTC 2018-08-06 12:56:47
Программа кодирования : mkvmerge v7.8.0 ('River Man') 32bit built on Apr 3 2015 12:11:22
Библиотека кодирования : libebml v1.3.1 + libmatroska v1.4.2

Видео
Идентификатор : 1
Формат : AVC
Формат/Информация : Advanced Video Codec
Профиль формата :
Настройки формата : CABAC / 9 Ref Frames
Параметр CABAC формата : Да
Параметр RefFrames формата : 9 кадров
Идентификатор кодека : V_MPEG4/ISO/AVC
Продолжительность : 43 м. 52 с.
Битрейт : 2000 Кбит/сек
Ширина : 1024 пикселя
Высота : 576 пикселей
Соотношение сторон : 16:9
Режим частоты кадров : Постоянный
Частота кадров : 25,000 кадров/сек
Цветовое пространство : YUV
Субдискретизация насыщенности : 4:2:0
Битовая глубина : 8 бит
Тип развёртки : Прогрессивная
Бит/(Пиксели*Кадры) : 0.136
Размер потока : 614 Мбайт (89%)
Библиотека кодирования : x264 core 146 r2538 121396c
Настройки программы : cabac=1 / ref=9 / deblock=1:-2:-1 / analyse=0x3:0x133 / me=umh / subme=9 / psy=1 / psy_rd=1.00:0.15 / mixed_ref=1 / me_range=32 / chroma_me=1 / trellis=2 / 8x8dct=1 / cqm=0 / deadzone=21,11 / fast_pskip=0 / chroma_qp_offset=-3 / threads=18 / lookahead_threads=3 / sliced_threads=0 / nr=0 / decimate=1 / interlaced=0 / bluray_compat=0 / constrained_intra=0 / bframes=9 / b_pyramid=2 / b_adapt=2 / b_bias=0 / direct=1 / weightb=1 / open_gop=0 / weightp=2 / keyint=250 / keyint_min=25 / scenecut=40 / intra_refresh=0 / rc=2pass / mbtree=0 / bitrate=2000 / ratetol=1.0 / qcomp=0.60 / qpmin=0 / qpmax=69 / qpstep=4 / cplxblur=20.0 / qblur=0.5 / ip_ratio=1.40 / pb_ratio=1.30 / aq=2:1.00
Default : Да
Forced : Нет
Цветовой диапазон : Limited
Основные цвета : BT.709
Характеристики трансфера : BT.709
Коэффициенты матрицы : BT.709

Аудио
Идентификатор : 2
Формат : AC-3
Формат/Информация : Audio Coding 3
Идентификатор кодека : A_AC3
Продолжительность : 43 м. 52 с.
Вид битрейта : Постоянный
Битрейт : 192 Кбит/сек
Каналы : 2 канала
Расположение каналов : Front: L R
Частота : 48,0 КГц
Частота кадров : 31,250 кадров/сек (1536 SPF)
Битовая глубина : 16 бит
Метод сжатия : С потерями
Размер потока : 60,3 Мбайт (9%)
ServiceKind/String : Complete Main
Default : Да
Forced : Нет








   Похожие торренты   Торрент   Размер 
В этой теме нет новых непрочитанных сообщений. Автошкола (1-8 серии из 8) (Сергей Гиргель) [2016, комедия, HDTVRip]

110 | 23

4.54 ГБ

В этой теме нет новых непрочитанных сообщений. Автошкола (1- серии из 8) / (Сергей Гиргель) [2016, комедия, HDTVRip-AVC]

0 | 3

688.38 МБ

В этой теме нет новых непрочитанных сообщений. Автошкола (1-4 серии из 8) (Сергей Гиргель) [2016, комедия, HDTVRip]

25 | 0

2.27 ГБ

В этой теме нет новых непрочитанных сообщений. Хочу быть счастливой (1-4 серии из 4) (Сергей Гиргель) [2017, мелодрама, SATRip]

5 | 0

2.14 ГБ

В этой теме нет новых непрочитанных сообщений. Я работаю в суде (1-20 серии из 20) (Сергей Полторанин) [2016, детектив, мелодрама, HDTVRip-AVC]

13 | 4

14.35 ГБ

В этой теме нет новых непрочитанных сообщений. Я работаю в суде (1-18 серии из 20) (Сергей Полторанин) [2016, детектив, мелодрама, HDTVRip-AVC]

4 | 0

12.9 ГБ

В этой теме нет новых непрочитанных сообщений. Я работаю в суде (1-13 серии из 20) (Сергей Полторанин) [2016, детектив, мелодрама, HDTVRip]

5 | 2

7.47 ГБ




Вы не можете начинать темы
Вы не можете отвечать на сообщения
Вы не можете редактировать свои сообщения
Вы не можете удалять свои сообщения
Вы не можете добавлять вложения

Перейти:  
 Вход
ppkBB3cker v.2 © 2008-2014 @ PPK
[ Time : 0.031s | 16 Queries | GZIP : Off ]

cron