img image001 image001 image001 image001 image001 image001 image001 image001 image001 image001 image001 image001 image001 image001 image001 image001

Planets Sun Sun Sun
Статистика раздачи
Автор: Снежана | Размер: 36.07 ГБ | Добавлен: 08 авг 2018
Раздают: 3    Качают: 0
Скачать торрент
Скачать торрент
Описание торрента

СообщениеДобавлено: 08 авг 2018 

Лесник (4 сезон 1-44 серии из 60) Своя земля

Перевод: Не требуется
Субтитры: отсутствуют
Формат: WEBRip-AVC, MKV, H.264, AC3
Страна: Россия
Режиссер: Виктор Конисевич
Жанр: детектив
Всего серий: 60
Продолжительность: 44 x ~ 00:49:00
Год выпуска: 2017

В ролях: Олег Штефанко,Анна Большова,Алексей Булдаков,Нина Гогаева,Александр Тютин,Михаил Васьков,Владимир Тимофеев,Михаил Солодко,Николай Сморчков,Вадим Александров.

Описание: У Леонида Зубова появляется новый враг — смотрящий по Навлинскому району, авторитет Саша Рафинад. Зубов хорошо знаком с ним – они отбывали срок в одной зоне, где Рафинад числился авторитетом. А так как основной доходный бизнес района – лес, то конфликт между лесником и смотрящим стремительно переходит в войну.



Видео: 1024x576 (16:9), 25 fps, AVC MPEG-4 (x264), ~ 2100 kbps avg, 0.142 bit/pixel
Аудио: 48 kHz, AC3, 2/0 (L,R) ch, ~192.00 kbps avg


Общее
Уникальный идентификатор : 184963202389824439039923406839012677534 (0x8B269DF451289C9FB6536BAF3320579E)
Полное имя : F:\TREKER\ТЕМР\lesnik_s04_[tfile.ru]\lesnik_s04_e01_[tfile.ru].mkv
Формат : Matroska
Версия формата : Version 2
Размер файла : 815 Мбайт
Продолжительность : 49 м. 19 с.
Общий поток : 2309 Кбит/сек
Дата кодирования : UTC 2018-07-17 09:01:58
Программа кодирования : mkvmerge v4.0.0 ('The Stars were mine') сборка от Jun 6 2010 16:18:42
Библиотека кодирования : libebml v1.0.0 + libmatroska v1.0.0
Обложка : Yes
Attachments : cover.jpg

Видео
Идентификатор : 1
Формат : AVC
Формат/Информация : Advanced Video Codec
Профиль формата :
Параметр CABAC формата : Да
Параметр ReFrames формата : 6 кадров
Идентификатор кодека : V_MPEG4/ISO/AVC
Продолжительность : 49 м. 19 с.
Битрейт : 2100 Кбит/сек
Ширина : 1024 пикселя
Высота : 576 пикселей
Соотношение сторон : 16:9
Режим частоты кадров : Постоянный
Частота кадров : 25,000 кадров/сек
Цветовое пространство : YUV
Субдискретизация насыщенности : 4:2:0
Битовая глубина : 8 бит
Тип развёртки : Прогрессивная
Бит/(Пиксели*Кадры) : 0.142
Размер потока : 731 Мбайт (90%)
Библиотека кодирования : x264 core 146 r2538 121396c
Настройки программы : cabac=1 / ref=6 / deblock=1:-1:-1 / analyse=0x3:0x133 / me=umh / subme=10 / psy=1 / psy_rd=1.00:0.15 / mixed_ref=1 / me_range=24 / chroma_me=1 / trellis=2 / 8x8dct=1 / cqm=0 / deadzone=21,11 / fast_pskip=0 / chroma_qp_offset=-3 / threads=12 / lookahead_threads=1 / sliced_threads=0 / nr=0 / decimate=1 / interlaced=0 / bluray_compat=0 / constrained_intra=0 / bframes=3 / b_pyramid=2 / b_adapt=2 / b_bias=0 / direct=1 / weightb=1 / open_gop=0 / weightp=2 / keyint=250 / keyint_min=25 / scenecut=40 / intra_refresh=0 / rc_lookahead=50 / rc=abr / mbtree=1 / bitrate=2100 / ratetol=1.0 / qcomp=0.69 / qpmin=0 / qpmax=69 / qpstep=4 / ip_ratio=1.40 / aq=1:1.00
Default : Нет
Forced : Нет

Аудио
Идентификатор : 2
Формат : AC-3
Формат/Информация : Audio Coding 3
Расширение режима : CM (complete main)
Параметр Endianness формата : Big
Идентификатор кодека : A_AC3
Продолжительность : 49 м. 19 с.
Вид битрейта : Постоянный
Битрейт : 192 Кбит/сек
Каналы : 2 канала
Расположение каналов : Front: L R
Частота : 48,0 КГц
Частота кадров : 31,250 кадров/сек (1536 spf)
Битовая глубина : 16 бит
Метод сжатия : С потерями
Размер потока : 67,7 Мбайт (8%)
Default : Нет
Forced : Нет







Внимание! Раздача ведётся путём добавления новых серий; при каждом добавлении создётся новый торрент. Чтобы начать докачку новой серии, пользователям необходимо сделать следующее:
(1) остановить скачивание,
(2) удалить старый торрент у себя из клиента (старые серии удалять не надо),
(3) скачать новый торрент и запустить его у себя в клиенте вместо старого, при этом указать клиенту путь в старую папку куда и должно происходить скачивание новых серий.

Ваш клиент при этом должен произвести хеширование (проверку) старой папки (если не производит сам - помогите ему сделать это), и будет докачивать только те серии которых у вас ещё нет. Старые серии при этом не удаляются, а продолжают раздаваться!

Eсли вы уже удалили старые серии, то предотвратить повторную закачку старых серий можно, отжав галочку в соответсвующих местах при запуске нового торрента. По возможности, желательно не удалять старые серии как можно дольше чтобы релизёр не столько продолжал раздавать старые серии, а смог сконцентрироваться на новых.



Релиз от:

Релиз предоставлен сайтом tfile.me!!



   Похожие торренты   Торрент   Размер 
В этой теме нет новых непрочитанных сообщений. Лесник (4 сезон 1-34 серии из 60) Своя земля (Виктор Конисевич) [2017, детектив, WEBRip-AVC]

0 | 2

27.87 ГБ

В этой теме нет новых непрочитанных сообщений. Лесник (4 сезон 1-50 серии из 60) Своя земля (Виктор Конисевич) [2017, детектив, WEBRip-AVC]

0 | 0

41.05 ГБ

В этой теме нет новых непрочитанных сообщений. Лесник (4 сезон 1-18 серии из 60) Своя земля (Виктор Конисевич) [2017, детектив, WEBRip-AVC]

5 | 13

14.75 ГБ

В этой теме нет новых непрочитанных сообщений. Лесник (4 сезон 1-36 серии из 60) Своя земля (Виктор Конисевич) [2017, детектив, WEBRip-AVC]

4 | 4

29.49 ГБ

В этой теме нет новых непрочитанных сообщений. Лесник (4 сезон 1-14 серии из 60) Своя земля (Виктор Конисевич) [2017, детектив, WEBRip-AVC]

7 | 2

11.37 ГБ

В этой теме нет новых непрочитанных сообщений. Лесник (4 сезон 1-60 серии из 60) Своя земля (Виктор Конисевич) [2017, детектив, WEBRip-AVC]

13 | 23

49.27 ГБ

В этой теме нет новых непрочитанных сообщений. Лесник (4 сезон 1-42 серии из 60) Своя земля (Виктор Конисевич) [2017, детектив, WEBRip-AVC]

2 | 0

34.43 ГБ




Вы не можете начинать темы
Вы не можете отвечать на сообщения
Вы не можете редактировать свои сообщения
Вы не можете удалять свои сообщения
Вы не можете добавлять вложения

Перейти:  
 Вход
ppkBB3cker v.2 © 2008-2014 @ PPK
[ Time : 0.042s | 16 Queries | GZIP : Off ]

cron