img image001 image001 image001 image001 image001 image001 image001 image001 image001 image001 image001 image001 image001 image001 image001 image001

Planets Sun Sun Sun
Статистика раздачи
Автор: Снежана | Размер: 13.14 ГБ | Добавлен: 10 авг 2018
Раздают: 31    Качают: 11
Скачать торрент
Скачать торрент
Описание торрента

СообщениеДобавлено: 10 авг 2018 

Что сказал покойник (1-10 серии из 10)

Перевод: Не требуется, cубтитры: отсутствуют
Формат: DVDRip-AVC, MKV, H.264, AC3
Страна: Россия
Режиссер: Игорь Масленников
Жанр: иронический детектив
Всего серий: 10
Продолжительность: 10 x ~ 00:52:00
Год выпуска: 1999-2000
В ролях: Олег Басилашвили, Марта Клубович, Олег Табаков, Алексей Булдаков, Анатолий Иванов, Владимир Еремин, Евгений Герчаков, Мамука Кикалейшвили, Борис Романов, Александр Романцов, Владимир Епископосян, Евгений Воскресенский, Виктор Вержбицкий, Игорь Мужжухин, Александр Пашутин, Эва Шикульска
Описание:
Экранизация известного иронического детектива Иоанны Хмелевской «Что сказал покойник». Героиня фильма - польская дама - попадает в невероятную ситуацию. В игорном доме,умирающий от пули,гангстер произносит ей шифр места, где находятся награбленные сокровища. Ее тут же похищают с целью получить эту информацию, что оказывается совсем не просто... Однако кокетство, фантазия и женская интуиция оказывается не меньшей силой, чем гангстерский Синдикат. Действие фильма переносится из Дании в Бразилию,из Бразилии во Францию, в Грецию и, наконец, в Польшу. Героиня фильма играет с гангстерами в изощренную двойную игру, и вступает в поединок с самим Главарем...



Видео: 720x576@768x576 (2.43:1), 25 fps, AVC Н.264 ~2973 kbps avg, 0.287 bit/pixel
Аудио#1: 48 kHz, AC3 Dolby Digital, 3/2 (L,C,R,l,r) + LFE ch, ~448.00 kbps avg
Аудио#2: 48 kHz, AC3 2 ch, (Front: L R) ~192.00 kbps avg

Complete name : CHto skazal pokoynik.E01-10.mkv
Format : Matroska
Format version : Version 4 / Version 2
File size : 1.32 GiB
Duration : 52 min 0 s
Overall bit rate : 3 623 kb/s
Encoded date : UTC 2018-08-09 13:22:19
Writing application : mkvmerge v8.3.0 ('Over the Horizon') 32bit
Writing library : libebml v1.3.1 + libmatroska v1.4.2

Video
ID : 1
Format : AVC
Format/Info : Advanced Video Codec
Format profile :
Format settings : CABAC / 4 Ref Frames
Format settings, CABAC : Yes
Format settings, ReFrames : 4 frames
Codec ID : V_MPEG4/ISO/AVC
Duration : 52 min 0 s
Bit rate : 2 973 kb/s
Width : 720 pixels
Height : 576 pixels
Display aspect ratio : 4:3
Frame rate mode : Constant
Frame rate : 25.000 FPS
Standard : PAL
Color space : YUV
Chroma subsampling : 4:2:0
Bit depth : 8 bits
Scan type : Progressive
Bits/(Pixel*Frame) : 0.287
Stream size : 1.08 GiB (82%)
Writing library : x264 core 152 r2854 e9a5903
Encoding settings : cabac=1 / ref=3 / deblock=1:0:0 / analyse=0x3:0x133 / me=hex / subme=7 / psy=1 / psy_rd=1.00:0.00 / mixed_ref=1 / me_range=16 / chroma_me=1 / trellis=1 / 8x8dct=1 / cqm=0 / deadzone=21,11 / fast_pskip=1 / chroma_qp_offset=-2 / threads=6 / lookahead_threads=1 / sliced_threads=0 / nr=0 / decimate=1 / interlaced=0 / bluray_compat=0 / constrained_intra=0 / bframes=3 / b_pyramid=2 / b_adapt=1 / b_bias=0 / direct=1 / weightb=1 / open_gop=0 / weightp=2 / keyint=250 / keyint_min=25 / scenecut=40 / intra_refresh=0 / rc_lookahead=40 / rc=abr / mbtree=1 / bitrate=2973 / ratetol=1.0 / qcomp=0.60 / qpmin=10 / qpmax=51 / qpstep=4 / ip_ratio=1.40 / aq=1:1.00
Default : Yes
Forced : No

Audio #1
ID : 2
Format : AC-3
Format/Info : Audio Coding 3
Codec ID : A_AC3
Duration : 52 min 0 s
Bit rate mode : Constant
Bit rate : 448 kb/s
Channel(s) : 6 channels
Channel positions : Front: L C R, Side: L R, LFE
Sampling rate : 48.0 kHz
Frame rate : 31.250 FPS (1536 SPF)
Bit depth : 16 bits
Compression mode : Lossy
Delay relative to video : 247 ms
Stream size : 167 MiB (12%)
Language : Russian
Service kind : Complete Main
Default : Yes
Forced : No

Audio #2
ID : 3
Format : AC-3
Format/Info : Audio Coding 3
Codec ID : A_AC3
Duration : 52 min 0 s
Bit rate mode : Constant
Bit rate : 192 kb/s
Channel(s) : 2 channels
Channel positions : Front: L R
Sampling rate : 48.0 kHz
Frame rate : 31.250 FPS (1536 SPF)
Bit depth : 16 bits
Compression mode : Lossy
Delay relative to video : 247 ms
Stream size : 71.4 MiB (5%)
Language : Russian
Service kind : Complete Main
Default : No
Forced : No








   Похожие торренты   Торрент   Размер 
В этой теме нет новых непрочитанных сообщений. Приключения Шерлока Холмса и Доктора Ватсона (1-11 серий из 11 + Бонус) (Игорь Масленников) [1979-1986, детектив, классическая, экранизация, DVDRip]

9 | 1

15.95 ГБ

В этой теме нет новых непрочитанных сообщений. Спецы (1-20 серии из 20) (Олег Масленников) [2017, детектив, WEB-DLRip-AVC]

32 | 9

10.83 ГБ

В этой теме нет новых непрочитанных сообщений. Свидетели (2 сезон 1-33 серии из 80) (Игорь Ромащенко, Илья Шеховцов, Игорь Михайлусь…) [2017, детектив, драма, криминал, HDTVRip]

5 | 0

19.33 ГБ

В этой теме нет новых непрочитанных сообщений. Свидетели (2 сезон 1-50 серии из 80) (Игорь Ромащенко, Илья Шеховцов, Игорь Михайлусь…) [2017, детектив, драма, криминал, HDTVRip]

2 | 2

29.29 ГБ

В этой теме нет новых непрочитанных сообщений. Свидетели (2 сезон 1-62 серии из 80) (Игорь Ромащенко, Илья Шеховцов, Игорь Михайлусь…) [2017, детектив, драма, криминал, HDTVRip-AVC]

0 | 12

43.76 ГБ

В этой теме нет новых непрочитанных сообщений. Свидетели (2 сезон 1-42 серии из 80) (Игорь Ромащенко, Илья Шеховцов, Игорь Михайлусь…) [2017, детектив, драма, криминал, HDTVRip]

1 | 3

24.6 ГБ

В этой теме нет новых непрочитанных сообщений. Свидетели (2 сезон 1-80 серии из 80) (Игорь Ромащенко, Илья Шеховцов, Игорь Михайлусь…) [2017, детектив, драма, криминал, HDTVRip-AVC]

2 | 10

56.44 ГБ




Вы не можете начинать темы
Вы не можете отвечать на сообщения
Вы не можете редактировать свои сообщения
Вы не можете удалять свои сообщения
Вы не можете добавлять вложения

Перейти:  
 Вход
ppkBB3cker v.2 © 2008-2014 @ PPK
[ Time : 0.049s | 15 Queries | GZIP : Off ]

cron