img image001 image001 image001 image001 image001 image001 image001 image001 image001 image001 image001 image001 image001 image001 image001 image001

Planets Sun Sun Sun
Статистика раздачи
Автор: Снежана | Размер: 14.48 ГБ | Добавлен: 13 авг 2018
Раздают: 20    Качают: 8
Скачать торрент
Скачать торрент
Описание торрента

СообщениеДобавлено: 13 авг 2018 

Алхимик. Эликсир Фауста (1-12 серии из 12)


Перевод: Не требуется
Cубтитры: отсутствуют
Формат: WEB-DL, MKV, H.264, AC3
Страна: Россия
Режиссер: Александр Муратов (II)
Жанр: детектив, мистика
Всего серий: 12
Продолжительность: 12 x 00:51:00
Год выпуска: 2015

В ролях: Игорь Петренко, Светлана Иванова, Виктор Раков, Евгения Добровольская, Юлия Рутберг, Павел Баршак, Фёдор Лавров, Владимир Ерёмин, Сергей Степанченко, Игорь Ясулович, Юрий Беляев, Андрей Ильин, Борис Щербаков, Артём Ткаченко, Владимир Коренев, Павел Меленчук, Александр Сирин, Елена Радевич, Татьяна Абрамова, Алексей Шейнин, Вячеслав Жолобов, Артём Фадеев, Владимир Гостюхин, Кирилл Жандаров

Описание: Сериал «Алхимик» - о самых известных и в то же время самых таинственных экспериментаторах всех времен. Используя познания в органической химии, свойствах известных минералов и особую энергетику мистических элементов они из года в год пытались приготовить эликсир бессмертия и научиться превращать в золото любой металл.
Итоги экспериментов, жизни, величайшие открытия, так и оставшиеся секретом для потомков, в этом сериале...




Видео: 1280x720p (16:9), 25.000 fps, AVC MPEG-4 (x264), ~ 3 036 Кбит/сек, 0.132 bit/pixel
Аудио: 48 kHz, AC3, 2/0 (L,R) ch, ~ 192 kbps avg






Общее
Уникальный идентификатор : 251695093644227682905224994775631989692 (0xBD5AB6369707EADC873E04A8E7A10BBC)
Полное имя : E:\Закачка-2\01.Alhimik.WEB-DL 720p. Files-x.mkv
Формат : Matroska
Версия формата : Version 2
Размер файла : 1,24 Гбайт
Продолжительность : 53 м.
Режим общего битрейта : Постоянный
Общий поток : 3294 Кбит/сек
Дата кодирования : UTC 2018-07-23 19:41:11
Программа кодирования : mkvmerge v7.8.0 ('River Man') 32bit built on Apr 3 2015 12:11:22
Библиотека кодирования : libebml v1.3.1 + libmatroska v1.4.2

Видео
Идентификатор : 1
Формат : AVC
Формат/Информация : Advanced Video Codec
Профиль формата :
Параметр CABAC формата : Да
Параметр ReFrames формата : 4 кадра
Идентификатор кодека : V_MPEG4/ISO/AVC
Продолжительность : 53 м.
Вид битрейта : Постоянный
Битрейт : 3036 Кбит/сек
Номинальный битрейт : 3200 Кбит/сек / 3200 Кбит/сек
Ширина : 1280 пикселей
Высота : 720 пикселей
Соотношение сторон : 16:9
Режим частоты кадров : Постоянный
Частота кадров : 25,000 кадров/сек
Цветовое пространство : YUV
Субдискретизация насыщенности : 4:2:0
Битовая глубина : 8 бит
Тип развёртки : Прогрессивная
Бит/(Пиксели*Кадры) : 0.132
Размер потока : 1,15 Гбайт (92%)
Библиотека кодирования : x264 core 148
Настройки программы : cabac=1 / ref=2 / deblock=1:0:0 / analyse=0x3:0x113 / me=hex / subme=6 / psy=1 / psy_rd=1.00:0.00 / mixed_ref=1 / me_range=16 / chroma_me=1 / trellis=1 / 8x8dct=1 / cqm=0 / deadzone=21,11 / fast_pskip=1 / chroma_qp_offset=-2 / threads=1 / lookahead_threads=1 / sliced_threads=0 / nr=0 / decimate=1 / interlaced=0 / bluray_compat=0 / constrained_intra=0 / bframes=3 / b_pyramid=2 / b_adapt=1 / b_bias=0 / direct=1 / weightb=1 / open_gop=0 / weightp=1 / keyint=250 / keyint_min=25 / scenecut=0 / intra_refresh=0 / rc_lookahead=30 / rc=cbr / mbtree=1 / bitrate=3200 / ratetol=1.0 / qcomp=0.60 / qpmin=0 / qpmax=69 / qpstep=4 / vbv_maxrate=3200 / vbv_bufsize=1600 / nal_hrd=cbr / filler=1 / ip_ratio=1.40 / aq=1:1.00
Default : Да
Forced : Нет

Аудио
Идентификатор : 2
Формат : AC-3
Формат/Информация : Audio Coding 3
Расширение режима : CM (complete main)
Параметр Endianness формата : Big
Идентификатор кодека : A_AC3
Продолжительность : 53 м.
Вид битрейта : Постоянный
Битрейт : 192 Кбит/сек
Каналы : 2 канала
Расположение каналов : Front: L R
Частота : 48,0 КГц
Частота кадров : 31,250 кадров/сек (1536 spf)
Метод сжатия : С потерями
Задержка видео : -61 мс.
Размер потока : 74,1 Мбайт (6%)
Default : Да
Forced : Нет





   Похожие торренты   Торрент   Размер 
В этой теме нет новых непрочитанных сообщений. Алхимик. Эликсир Фауста (1-2 серии из 12) (Александр Муратов (II)) [2015, детектив, мистика, WEB-DL 720p]

0 | 0

2.44 ГБ

В этой теме нет новых непрочитанных сообщений. Алхимик. Эликсир Фауста (1-12 серии из 12) (Александр Муратов (II)) [2015, детектив, мистика, HDTVRip 720p]

0 | 0

16.04 ГБ

В этой теме нет новых непрочитанных сообщений. Алхимик. Эликсир Фауста (1-2 серии из 12) (Александр Муратов (II)) [2015, детектив, мистика, HDTVRip 720p]

7 | 0

2.7 ГБ

В этой теме нет новых непрочитанных сообщений. Алхимик. Эликсир Фауста (1-12 серии из 12) (Александр Муратов (II)) [2015, детектив, мистика, WEB-DLRip]

50 | 8

6.53 ГБ

В этой теме нет новых непрочитанных сообщений. Алхимик. Эликсир Фауста (1-2 серии из 12) (Александр Муратов (II)) [2015, детектив, мистика, HDTVRip]

26 | 17

1.46 ГБ

В этой теме нет новых непрочитанных сообщений. Алхимик. Эликсир Фауста (1-2 серии из 12) (Александр Муратов (II)) [2015, детектив, мистика, WEB-DL 1080p]

2 | 0

3.6 ГБ

В этой теме нет новых непрочитанных сообщений. Алхимик. Эликсир Фауста (1-12 серии из 12) (Александр Муратов (II)) [2015, детектив, мистика, HDTVRip]

63 | 13

8.69 ГБ




Вы не можете начинать темы
Вы не можете отвечать на сообщения
Вы не можете редактировать свои сообщения
Вы не можете удалять свои сообщения
Вы не можете добавлять вложения

Перейти:  
 Вход
ppkBB3cker v.2 © 2008-2014 @ PPK
[ Time : 0.048s | 15 Queries | GZIP : Off ]

cron