img image001 image001 image001 image001 image001 image001 image001 image001 image001 image001 image001 image001 image001 image001 image001 image001

Planets Sun Sun Sun
Статистика раздачи
Автор: Снежана | Размер: 9.95 ГБ | Добавлен: 14 авг 2018
Раздают: 0    Качают: 0
Скачать торрент
Скачать торрент
Описание торрента

СообщениеДобавлено: 14 авг 2018 

Информация о фильме
Название: Оттенки синего
Оригинальное название: Shades of Blue
Год выпуска: 2018
Жанр: Драма, криминал
Режиссер: Дэн Лернер, Милисент Шелтон, Бэрри Левинсон
В ролях: Дженнифер Лопес, Рэй Лиотта, Дреа Де Маттео, Уоррен Коул, Дайо Окенийи, Сара Джеффри, Линн Марокола, Лесли Силва, Кэтрин Кейтс, Дин Гейер
О фильме:
Описание фильма

Страна: США
Студия: Shades of Blue, Ryan Seacrest Productions, Universal TV
Продолжительность: 9 x ~00:45:00
Перевод: Любительский многоголосый [ColdFilm]
Файл
Кодек: x264 (AVC)
Качество: HDTVRip 720p
Видео:~3500 Кбит/с, 1280x720,25.000 fps
Аудио: Русский (AC3, 2 ch, 125 Кбит/с)


General
Unique ID : 172303865450988119379372086015392272871 (0x81A084745D2AD08E84FA01772EC4D1E7)
Complete name : Shades.of.Blue.S03E01.720p.ColdFilm.mkv
Format : Matroska
Format version : Version 2
File size : 1.11 GiB
Duration : 42 min 44 s
Overall bit rate : 3 720 kb/s
Encoded date : UTC 2018-06-18 10:30:29 / UTC 2017-11-20 18:25:40
Writing application : mkvmerge v3.3.0 ('Language') built on Mar 24 2010 14:59:24
Writing library : libebml v0.8.0 + libmatroska v0.9.0 / Lavf54.63.104
Video
ID : 1
Format : AVC
Format/Info : Advanced Video Codec
Format profile : Main@L3.1
Format settings : CABAC / 1 Ref Frames
Format settings, CABAC : Yes
Format settings, ReFrames : 1 frame
Codec ID : V_MPEG4/ISO/AVC
Duration : 42 min 44 s
Bit rate : 3 500 kb/s
Width : 1 280 pixels
Height : 720 pixels
Display aspect ratio : 16:9
Frame rate mode : Constant
Frame rate : 25.000 FPS
Color space : YUV
Chroma subsampling : 4:2:0
Bit depth : 8 bits
Scan type : Progressive
Bits/(Pixel*Frame) : 0.152
Stream size : 1.03 GiB (93%)
Writing library : x264 core 129
Default : No
Forced : No
Audio
ID : 2
Format : AC-3
Format/Info : Audio Coding 3
Codec ID : A_AC3
Duration : 42 min 44 s
Bit rate mode : Constant
Bit rate : 192 kb/s
Channel(s) : 2 channels
Channel positions : Front: L R
Sampling rate : 48.0 kHz
Frame rate : 31.250 FPS (1536 SPF)
Bit depth : 16 bits
Compression mode : Lossy
Stream size : 58.7 MiB (5%)
Service kind : Complete Main
Default : Yes
Forced : No

Релиз от:



   Похожие торренты   Торрент   Размер 
В этой теме нет новых непрочитанных сообщений. Оттенки синего / Shades of Blue [03x01-03 из 13] (2018) HDTVRip 720p | ColdFilm

2 | 6

3.31 ГБ

В этой теме нет новых непрочитанных сообщений. Оттенки синего / Shades of Blue [03x01-02 из 13] (2018) HDTVRip 720p | ColdFilm

8 | 2

2.21 ГБ

В этой теме нет новых непрочитанных сообщений. Оттенки синего / Shades of Blue [03x01-02 из 13] (2018) HDTVRip | ColdFilm

0 | 6

995.72 МБ

В этой теме нет новых непрочитанных сообщений. Оттенки синего / Shades of Blue [03x01-09 из 13] (2018) HDTVRip | ColdFilm

0 | 0

4.33 ГБ

В этой теме нет новых непрочитанных сообщений. Оттенки синего / Shades of Blue [03x01-03 из 13] (2018) HDTVRip | ColdFilm

3 | 4

1.45 ГБ

В этой теме нет новых непрочитанных сообщений. Оттенки синего / Shades of Blue [03x01-02 из 13] (2018) WEBRip 720p | GostFilm

3 | 7

1.99 ГБ

В этой теме нет новых непрочитанных сообщений. Оттенки синего / Shades of Blue [03x01 из 10] (2018) WEB-DL 720p | Gears Media

0 | 12

2.84 ГБ




Вы не можете начинать темы
Вы не можете отвечать на сообщения
Вы не можете редактировать свои сообщения
Вы не можете удалять свои сообщения
Вы не можете добавлять вложения

Перейти:  
 Вход
ppkBB3cker v.2 © 2008-2014 @ PPK
[ Time : 2.375s | 17 Queries | GZIP : Off ]

cron