img image001 image001 image001 image001 image001 image001 image001 image001 image001 image001 image001 image001 image001 image001 image001 image001

Planets Sun Sun Sun
Статистика раздачи
Автор: Снежана | Размер: 3.17 ГБ | Добавлен: 14 авг 2018
Раздают: 0    Качают: 0
Скачать торрент
Скачать торрент
Описание торрента

СообщениеДобавлено: 14 авг 2018 

Информация о фильме
Название: Смертельное влечение
Оригинальное название: Heathers
Год выпуска: 2018
Жанр: Комедия
Режиссер: Кейт Дэннис, Сидни Фриланд, Лесли Хэдланд
В ролях: Ромель Де Сильва, Эдвин Браун, Анналиса Кокрейн, Джереми Кюлхейн, Мэнди Джун Турпин, Кристина Бёрдетт, Джо Дон Харрис
О фильме:
Симпатичная отличница Вероника не пользуется популярностью в школе. Она – аутсайдер, и взамен на дружбу готова буквально прислуживать популярным ученикам. Так Вероника попадает в «друзья» к троице учеников, которых зовут одинаково: Хезер. Веронике не слишком нравятся сами Хезер и их отношение к ней. И тут в школе появляется новый ученик, Джейсон, который полностью изменит жизнь Вероники.

Страна: США
Студия: Lakeshore Entertainment
Продолжительность: 9 x ~ 00:30:00
Перевод: Любительский многоголосый [ColdFilm]
Файл
Кодек: XviD
Качество: WEBRip
Видео:~1499 Кбит/с, 720x400, 23.976 fps
Аудио: Русский (AC3, 2 ch, 192 Кбит/с)


General
Complete name : D:Heathers.S01E01.WEB-DLRip.ColdFilm.avi
Format : AVI
Format/Info : Audio Video Interleave
File size : 483 MiB
Duration : 42 min 48 s
Overall bit rate : 1 578 kb/s
Writing application : VirtualDubMod 1.5.10.2 (build 2540/release)
Writing library : VirtualDubMod build 2540/release
Video
ID : 0
Format : xvid
Codec ID : xvid
Duration : 42 min 48 s
Bit rate : 1 376 kb/s
Width : 720 pixels
Height : 400 pixels
Display aspect ratio : 16:9
Frame rate : 23.976 (24000/1001) FPS
Bits/(Pixel*Frame) : 0.199
Stream size : 421 MiB (87%)
Audio
ID : 1
Format : AC-3
Format/Info : Audio Coding 3
Codec ID : 2000
Duration : 42 min 48 s
Bit rate mode : Constant
Bit rate : 192 kb/s
Channel(s) : 2 channels
Channel positions : Front: L R
Sampling rate : 48.0 kHz
Frame rate : 31.250 FPS (1536 SPF)
Bit depth : 16 bits
Compression mode : Lossy
Stream size : 58.8 MiB (12%)
Alignment : Split accross interleaves
Interleave, duration : 42 ms (1.00 video frame)
Interleave, preload duratio : 500 ms
Service kind : Complete Main

Релиз от:



   Похожие торренты   Торрент   Размер 
В этой теме нет новых непрочитанных сообщений. Смертельное влечение / Heathers [01x01-08 из 10] (2018) WEBRip 720p | ColdFilm

0 | 0

8.76 ГБ

В этой теме нет новых непрочитанных сообщений. Смертельное влечение / Heathers (1988) BDRip 1080p | P, L1

8 | 0

7.27 ГБ

В этой теме нет новых непрочитанных сообщений. Смертельное влечение / Heathers (1988) HDRip от Scarabey | P

113 | 20

1.45 ГБ

В этой теме нет новых непрочитанных сообщений. Смертельное влечение / Heathers (1988) HDRip от Scarabey | P

20 | 3

746.23 МБ

В этой теме нет новых непрочитанных сообщений. Смертельное влечение / Heathers (Майкл Леманн) [1988, триллер, комедия, криминал, BDRip-AVC] MVO

9 | 0

744.38 МБ

В этой теме нет новых непрочитанных сообщений. Смертельное влечение / Heathers (Майкл Леманн) [1988, триллер, комедия, криминал, BDRip-AVC] 2xMVO

2 | 0

2.18 ГБ

В этой теме нет новых непрочитанных сообщений. 9-1-1 / 9-1-1 [01x01-05 из 13] (2018) WEBRip | ColdFilm

0 | 0

2.47 ГБ




Вы не можете начинать темы
Вы не можете отвечать на сообщения
Вы не можете редактировать свои сообщения
Вы не можете удалять свои сообщения
Вы не можете добавлять вложения

Перейти:  
 Вход
ppkBB3cker v.2 © 2008-2014 @ PPK
[ Time : 0.047s | 16 Queries | GZIP : Off ]

cron