img image001 image001 image001 image001 image001 image001 image001 image001 image001 image001 image001 image001 image001 image001 image001 image001

Planets Sun Sun Sun
Статистика раздачи
Автор: Снежана | Размер: 7.17 ГБ | Добавлен: 13 сен 2018
Раздают: 2    Качают: 0
Скачать торрент
Скачать торрент
Описание торрента

СообщениеДобавлено: 13 сен 2018 

Родные люди (1-4 серии из 8)

Перевод: Не требуется, cубтитры: отсутствуют
Формат: HDTVRip 1080p, MKV, H.264, AC3
Страна: Россия
Режиссер: Алексей Царев (II)
Жанр: мелодрама
Всего серий: 8
Продолжительность: 4 х ~ 00:50:00
Год выпуска: 2018

В ролях: Ирина Розанова, Андрей Ильин, Мария Машкова, Варвара Бородина, Игнатий Акрачков, Андрей Феськов, Артём Ткаченко, Семён Шкаликов, Наталия Вдовина, Ольга Дибцева, Александр Андриенко, Андрей Забара, Дарья Петриченко, Анастасия Королькова, Михаил Стародубов, Владимир Антоник, Татьяна Орлова, Илья Бледный, Анна Потебня, Сергей Холмогоров, Александр Назаров (II), Сергей Медведев, Александр Водопьянов, Юлия Полубинская

Описание: Галина, сильная женщина, капитан огромного морского судна, мать двух взрослых дочерей. Бурные девяностые годы поломали немало людских судеб. Развели они по разным жизненным дорогам и Галину с Сергеем. Некогда любившие друг друга родные люди, разлетелись по разным частям света. Галине пришлось одной поднимать на ноги и растить двух замечательных дочек. Теперь, спустя годы, у нее есть не совсем женская, но любимая работа, есть ее нежно любимые девочки – Рита, младшая Светка и внучка Танюха. Спустя долгие годы, благодаря стечению обстоятельств, Сергей Александрович находит свою семью в Москве. Как цветные стекляшки старого калейдоскопа стремятся сложиться в красивую картинку, так близкие друг другу люди, в жизненной круговерти, тянутся друг к другу и непременно находят душевное равновесие, оказавшись в кругу своих родных.

Рейтинг и доп. информация:


Видео: 1920x1080 (16:9), 25 fps, AVC MPEG-4 (x264), High@L4 ~ 4800 kbps , 0.093 bit/pixel
Аудио: 48 kHz, AC3, 2/0 (L,R) ch, ~192 kbps
Внимание! Раздача ведётся путём добавления новых серий. При каждом добавлении создаётся новый торрент.
Чтобы начать докачку новой серии, пользователям необходимо сделать следующее:
1. Остановить скачивание.
2. Удалить старый торрент у себя из клиента (старые серии удалять не надо).
3. Скачать новый торрент и запустить его у себя в клиенте вместо старого, при этом указать клиенту путь в старую папку куда и должно происходить скачивание новых серий. Ваш клиент при этом должен произвести хеширование (проверку) старой папки и будет докачивать только те серии, которых у вас ещё нет. Старые серии при этом не удаляются, а продолжают раздаваться! Eсли вы уже удалили старые серии, то предотвратить повторную закачку старых серий можно, отжав галочку в соответствующих местах при запуске нового торрента.


Общее
Уникальный идентификатор : 8627485625846602945032479719373865323 (0x67D97E1EDEC3BFEE02071621A13016B)
Полное имя : C:\Родные люди.2018.HDTVRip (1080p)\01.Родные люди.2018.HDTVRip (1080p).mkv
Формат : Matroska
Версия формата : Version 4
Размер файла : 1,78 Гбайт
Продолжительность : 50 м. 58 с.
Общий поток : 4995 Кбит/сек
Программа кодирования : XviD4PSP 7.0.456 DAILY
Библиотека кодирования : Lavf57.71.100
ErrorDetectionType : Per level 1
ENCODING_INFO : MATROSKA,WEBM > MKV / H264 > X264 VBR-2P 4800kbps HQ / MP2 > AC3 CBR 192kbps

Видео
Идентификатор : 1
Формат : AVC
Формат/Информация : Advanced Video Codec
Профиль формата : High@L4
Настройки формата : CABAC / 4 Ref Frames
Параметр CABAC формата : Да
Параметр RefFrames формата : 4 кадра
Идентификатор кодека : V_MPEG4/ISO/AVC
Продолжительность : 50 м. 58 с.
Битрейт : 4800 Кбит/сек
Ширина : 1920 пикселей
Высота : 1080 пикселей
Соотношение сторон : 16:9
Режим частоты кадров : Постоянный
Частота кадров : 25,000 кадров/сек
Цветовое пространство : YUV
Субдискретизация насыщенности : 4:2:0
Битовая глубина : 8 бит
Тип развёртки : Прогрессивная
Бит/(Пиксели*Кадры) : 0.093
Размер потока : 1,67 Гбайт (94%)
Библиотека кодирования : x264 core 155 r2901M 7d0ff22
Настройки программы : cabac=1 / ref=3 / deblock=1:-3:-3 / analyse=0x3:0x113 / me=hex / subme=7 / psy=1 / psy_rd=1.00:0.20 / mixed_ref=1 / me_range=16 / chroma_me=1 / trellis=1 / 8x8dct=1 / cqm=0 / deadzone=21,11 / fast_pskip=1 / chroma_qp_offset=-3 / threads=5 / lookahead_threads=1 / sliced_threads=0 / nr=0 / decimate=1 / interlaced=0 / bluray_compat=0 / constrained_intra=0 / bframes=3 / b_pyramid=2 / b_adapt=2 / b_bias=0 / direct=3 / weightb=1 / open_gop=0 / weightp=2 / keyint=250 / keyint_min=25 / scenecut=40 / intra_refresh=0 / rc_lookahead=40 / rc=2pass / mbtree=1 / bitrate=4800 / ratetol=1.0 / qcomp=0.60 / qpmin=0 / qpmax=69 / qpstep=4 / cplxblur=20.0 / qblur=0.5 / ip_ratio=1.40 / aq=1:1.00
Default : Да
Forced : Нет

Аудио
Идентификатор : 2
Формат : AC-3
Формат/Информация : Audio Coding 3
Коммерческое название : Dolby Digital
Идентификатор кодека : A_AC3
Продолжительность : 50 м. 58 с.
Вид битрейта : Постоянный
Битрейт : 192 Кбит/сек
Каналы : 2 канала
Channel layout : L R
Частота : 48,0 КГц
Частота кадров : 31,250 кадров/сек (1536 SPF)
Битовая глубина : 16 бит
Метод сжатия : С потерями
Размер потока : 70,0 Мбайт (4%)
Язык : Russian
ServiceKind/String : Complete Main
Default : Да
Forced : Нет










   Похожие торренты   Торрент   Размер 
В этой теме нет новых непрочитанных сообщений. Родные люди (1-8 серии из 8) (Алексей Царев (II)) [2018, мелодрама, HDTVRip 1080p]

4 | 1

14.43 ГБ

В этой теме нет новых непрочитанных сообщений. Родные люди (1-8 серии из 8) (Алексей Царев (II)) [2018, мелодрама, HDTVRip]

75 | 23

5.75 ГБ

В этой теме нет новых непрочитанных сообщений. Родные люди (1-4 серии из 8) (Алексей Царев (II)) [2018, мелодрама, HDTVRip]

29 | 0

2.86 ГБ

В этой теме нет новых непрочитанных сообщений. Родные люди (1-8 серии из 8) (Алексей Царев (II)) [2018, мелодрама, HDTVRip-AVC]

8 | 8

6.34 ГБ

В этой теме нет новых непрочитанных сообщений. Родные люди (1-2 серии из 8) (Алексей Царев (II)) [2018, мелодрама, HDTVRip-AVC]

6 | 0

1.56 ГБ

В этой теме нет новых непрочитанных сообщений. Родные люди (1-8 серии из 8) (Алексей Царев (II)) [2018, мелодрама, HDTVRip 720p]

26 | 13

10.67 ГБ

В этой теме нет новых непрочитанных сообщений. Родные люди (1-4 серии из 8) (Алексей Царев (II)) [2018, мелодрама, HDTVRip 720p]

29 | 4

5.3 ГБ




Вы не можете начинать темы
Вы не можете отвечать на сообщения
Вы не можете редактировать свои сообщения
Вы не можете удалять свои сообщения
Вы не можете добавлять вложения

Перейти:  
 Вход
ppkBB3cker v.2 © 2008-2014 @ PPK
[ Time : 0.054s | 18 Queries | GZIP : Off ]

cron