img image001 image001 image001 image001 image001 image001 image001 image001 image001 image001 image001 image001 image001 image001 image001 image001

Planets Sun Sun Sun
Статистика раздачи
Автор: Снежана | Размер: 30.07 ГБ | Добавлен: 13 сен 2018
Раздают: 0    Качают: 0
Скачать торрент
Скачать торрент
Описание торрента

СообщениеДобавлено: 13 сен 2018 

Балабол (2 сезон 1-14 серии из 16)

Перевод: Не требуется, cубтитры: отсутствуют
Формат: WEBRip 1080p, MKV, H.264, AC3
Страна: Россия
Режиссер: Владимир Мельник
Жанр: детектив, комедия, криминал
Всего серий: 16
Продолжительность: 14 x ~ 00:50:00
Год выпуска: 2018

В ролях: Константин Юшкевич, Вадим Андреев, Инга Оболдина, Ирина Низина, Мария Пирогова, Илья Шляга, Иван Агапов, Игорь Старосельцев, Константин Тополага, Сергей Неудачин, Антон Ескин, Олег Жуков

Описание: Провинциальный оперативник Саня Балабин – волк-одиночка с неиссякаемым чувством юмора, который твердо уверен: со своими личными проблемами и любыми трудностями на работе он сможет справиться без чьей-либо помощи. Эту уверенность Балабина часто рушит сама жизнь, которая все время подкидывает ему просто безвыходные ситуации, и тут на выручку стражу порядка приходят его верные друзья Грибанов и Кузнечик.. В интересах следствия Балабину нередко приходится иметь дело с женщинами легкого поведения и мелкими мошенниками, бомжами и бродячими музыкантами. В новом сезоне Саня продолжит разбираться с бесконечным ворохом криминальных историй, а также всерьез займется личной жизнью и попытается вернуть жену. Любимая бросила его после 19 лет брака, сказав, что супруг женат только на своей работе. Дочь Маша объявляет о своей скорой свадьбе, и по случаю предстоящего торжества у Балабина наступает краткое перемирие с женой. Но героя временное затишье не устраивает, и ради сохранения семьи он готов пойти на отчаянный поступок…

Рейтинг и доп. информация:


Видео: 1920х1080, (16:9), 25 fps, AVC MPEG-TS (x264), ~ 6000 kbps avg, 0.116 bit/pixel
Аудио: 48 kHz, AC3, 2/0 (L,R) ch, ~192 kbps
Внимание! Раздача ведётся путём добавления новых серий. При каждом добавлении создаётся новый торрент.
Чтобы начать докачку новой серии, пользователям необходимо сделать следующее:
1. Остановить скачивание.
2. Удалить старый торрент у себя из клиента (старые серии удалять не надо).
3. Скачать новый торрент и запустить его у себя в клиенте вместо старого, при этом указать клиенту путь в старую папку куда и должно происходить скачивание новых серий. Ваш клиент при этом должен произвести хеширование (проверку) старой папки и будет докачивать только те серии, которых у вас ещё нет. Старые серии при этом не удаляются, а продолжают раздаваться! Eсли вы уже удалили старые серии, то предотвратить повторную закачку старых серий можно, отжав галочку в соответствующих местах при запуске нового торрента.


Общее
Уникальный идентификатор : 208317302018135465754197035405449452580 (0x9CB873F717735CE28F717C8662255C24)
Полное имя : C:\Balabol.s02.WEB-DL.(1080p).Nikolspup\Balabol.s02.(01.seriya.iz.16).WEB-DL.(1080p).Nikolspup.mkv
Формат : Matroska
Версия формата : Version 4
Размер файла : 2,14 Гбайт
Продолжительность : 49 м. 44 с.
Режим общего битрейта : Постоянный
Общий поток : 6169 Кбит/сек
Дата кодирования : UTC 2018-09-03 19:12:13
Программа кодирования : mkvmerge v7.8.0 ('River Man') 32bit built on Mar 27 2015 16:18:02
Библиотека кодирования : libebml v1.3.1 + libmatroska v1.4.2

Видео
Идентификатор : 1
Формат : AVC
Формат/Информация : Advanced Video Codec
Профиль формата :
Настройки формата : 2 Ref Frames
Параметр CABAC формата : Нет
Параметр RefFrames формата : 2 кадра
Идентификатор кодека : V_MPEG4/ISO/AVC
Продолжительность : 49 м. 44 с.
Вид битрейта : Постоянный
Битрейт : 6000 Кбит/сек
Ширина : 1920 пикселей
Высота : 1080 пикселей
Соотношение сторон : 16:9
Режим частоты кадров : Постоянный
Частота кадров : 25,000 кадров/сек
Стандарт вещания : PAL
Цветовое пространство : YUV
Субдискретизация насыщенности : 4:2:0
Битовая глубина : 8 бит
Тип развёртки : Прогрессивная
Бит/(Пиксели*Кадры) : 0.116
Размер потока : 2,03 Гбайт (95%)
Default : Да
Forced : Нет
Цветовой диапазон : Limited
Основные цвета : BT.709
Характеристики трансфера : BT.709
Коэффициенты матрицы : BT.709

Аудио
Идентификатор : 2
Формат : AC-3
Формат/Информация : Audio Coding 3
Коммерческое название : Dolby Digital
Идентификатор кодека : A_AC3
Продолжительность : 49 м. 44 с.
Вид битрейта : Постоянный
Битрейт : 192 Кбит/сек
Каналы : 2 канала
Channel layout : L R
Частота : 48,0 КГц
Частота кадров : 31,250 кадров/сек (1536 SPF)
Битовая глубина : 16 бит
Метод сжатия : С потерями
Размер потока : 68,3 Мбайт (3%)
Язык : Russian
ServiceKind/String : Complete Main
Default : Да
Forced : Нет








   Похожие торренты   Торрент   Размер 
В этой теме нет новых непрочитанных сообщений. Балабол (2 сезон 1-4 серии из 16) (Владимир Мельник) [2018, детектив, комедия, криминал, WEBRip 1080p]

0 | 0

8.7 ГБ

В этой теме нет новых непрочитанных сообщений. Балабол (2 сезон 1-10 серии из 16) (Владимир Мельник) [2018, детектив, комедия, криминал, WEBRip 1080p]

14 | 17

21.35 ГБ

В этой теме нет новых непрочитанных сообщений. Балабол (2 сезон 1-8 серии из 16) (Владимир Мельник) [2018, детектив, комедия, криминал, WEBRip 1080p]

35 | 31

17.24 ГБ

В этой теме нет новых непрочитанных сообщений. Балабол (2 сезон 1-16 серии из 16) (Владимир Мельник) [2018, детектив, комедия, криминал, WEBRip 1080p]

28 | 16

34.55 ГБ

В этой теме нет новых непрочитанных сообщений. Балабол (2 сезон 1-6 серии из 16) (Владимир Мельник) [2018, детектив, комедия, криминал, WEBRip 1080p]

11 | 1

13.03 ГБ

В этой теме нет новых непрочитанных сообщений. Балабол (2 сезон 1-16 серии из 16) (Владимир Мельник) [2018, детектив, комедия, криминал, WEBRip]

27 | 12

9.53 ГБ

В этой теме нет новых непрочитанных сообщений. Балабол (2 сезон 1-14 серии из 16) (Владимир Мельник) [2018, детектив, комедия, криминал, WEBRip]

21 | 27

8.3 ГБ




Вы не можете начинать темы
Вы не можете отвечать на сообщения
Вы не можете редактировать свои сообщения
Вы не можете удалять свои сообщения
Вы не можете добавлять вложения

Перейти:  
 Вход
ppkBB3cker v.2 © 2008-2014 @ PPK
[ Time : 0.045s | 19 Queries | GZIP : Off ]

cron