img image001 image001 image001 image001 image001 image001 image001 image001 image001 image001 image001 image001 image001 image001 image001 image001

Planets Sun Sun Sun
Статистика раздачи
Автор: Снежана | Размер: 8.42 ГБ | Добавлен: 13 сен 2018
Раздают: 0    Качают: 0
Скачать торрент
Скачать торрент
Описание торрента

СообщениеДобавлено: 13 сен 2018 

Ищейка (3 сезон 1-7 серии из 16)

Перевод: Не требуется, cубтитры: отсутствуют
Формат: WEB-DL 720p, MKV, H.264, AC3
Страна: Россия
Режиссер: Дмитрий Брусникин
Жанр: детектив
Всего серий: 16
Продолжительность: 7 х ~ 00:50:00
Год выпуска: 2018

В ролях: Анна Банщикова, Александр Макогон, Ольга Литвинова, Денис Бургазлиев, Владислав Павлов, Эдуард Чекмазов, Владимир Николенко, Анатолий Гущин, Ирина Пулина, Дмитрий Миллер, Дарья Антонюк, Юрий Грубник, Анастасия Великородная, Александр Мосолов, Дмитрий Комов, Евгений Кушпель, Яна Палецкая, Сергей Ланбамин, Мария Шляпина, Владимир Канухин, Антон Кузнецов, Алёна Мордовина, Сергей Цепов, Анастасия Сорокина

Описание: Жизнь подполковника Александры Кушнир постепенно возвращается в привычное русло. Кажется, героиня научилась выпутываться из самых сложных ситуаций, и её уже ничем не удивить. Но внезапно всего лишь один визит к врачу переворачивает всё с ног на голову. Расследования, быт героини, её отношения с близкими - ничто уже не будет прежним...

Рейтинг и доп. информация:


Видео: 1280х720 (16:9), 25 fps, AVC MPEG-4 (x264), ~ 3000 kbps , 0.130 bit/pixel
Аудио: 48 kHz, AC3, 2/0 (L,R) ch, ~192.00 kbps avg
Внимание! Раздача ведётся путём добавления новых серий. При каждом добавлении создаётся новый торрент.
Чтобы начать докачку новой серии, пользователям необходимо сделать следующее:
1. Остановить скачивание.
2. Удалить старый торрент у себя из клиента (старые серии удалять не надо).
3. Скачать новый торрент и запустить его у себя в клиенте вместо старого, при этом указать клиенту путь в старую папку куда и должно происходить скачивание новых серий. Ваш клиент при этом должен произвести хеширование (проверку) старой папки и будет докачивать только те серии, которых у вас ещё нет. Старые серии при этом не удаляются, а продолжают раздаваться! Eсли вы уже удалили старые серии, то предотвратить повторную закачку старых серий можно, отжав галочку в соответствующих местах при запуске нового торрента.


Общее
Уникальный идентификатор : 178585408567566860530039799768124822788 (0x865A4C70FD70AC1C861956EDDDC11504)
Полное имя : C:\Users\User\Desktop\Новая папка\01.Ichejka.03.2018.WEB-DL.720.Files-x.mkv
Формат : Matroska
Версия формата : Version 2
Размер файла : 1,20 Гбайт
Продолжительность : 52 м. 27 с.
Режим общего битрейта : Постоянный
Общий поток : 3280 Кбит/сек
Дата кодирования : UTC 2018-09-04 08:09:40
Программа кодирования : mkvmerge v7.8.0 ('River Man') 32bit built on Apr 3 2015 12:11:22
Библиотека кодирования : libebml v1.3.1 + libmatroska v1.4.2

Видео
Идентификатор : 1
Формат : AVC
Формат/Информация : Advanced Video Codec
Профиль формата :
Настройки формата : CABAC / 4 Ref Frames
Параметр CABAC формата : Да
Параметр RefFrames формата : 4 кадра
Идентификатор кодека : V_MPEG4/ISO/AVC
Продолжительность : 52 м. 27 с.
Вид битрейта : Постоянный
Битрейт : 3000 Кбит/сек
Номинальный битрейт : 3200 Кбит/сек / 3200 Кбит/сек
Ширина : 1280 пикселей
Высота : 720 пикселей
Соотношение сторон : 16:9
Режим частоты кадров : Постоянный
Частота кадров : 25,000 кадров/сек
Цветовое пространство : YUV
Субдискретизация насыщенности : 4:2:0
Битовая глубина : 8 бит
Тип развёртки : Прогрессивная
Бит/(Пиксели*Кадры) : 0.130
Размер потока : 1,11 Гбайт (92%)
Библиотека кодирования : x264 core 148
Настройки программы : cabac=1 / ref=2 / deblock=1:0:0 / analyse=0x3:0x113 / me=hex / subme=6 / psy=1 / psy_rd=1.00:0.00 / mixed_ref=1 / me_range=16 / chroma_me=1 / trellis=1 / 8x8dct=1 / cqm=0 / deadzone=21,11 / fast_pskip=1 / chroma_qp_offset=-2 / threads=1 / lookahead_threads=1 / sliced_threads=0 / nr=0 / decimate=1 / interlaced=0 / bluray_compat=0 / constrained_intra=0 / bframes=3 / b_pyramid=2 / b_adapt=1 / b_bias=0 / direct=1 / weightb=1 / open_gop=0 / weightp=1 / keyint=250 / keyint_min=25 / scenecut=0 / intra_refresh=0 / rc_lookahead=30 / rc=cbr / mbtree=1 / bitrate=3200 / ratetol=1.0 / qcomp=0.60 / qpmin=0 / qpmax=69 / qpstep=4 / vbv_maxrate=3200 / vbv_bufsize=1600 / nal_hrd=cbr / filler=1 / ip_ratio=1.40 / aq=1:1.00
Default : Да
Forced : Нет

Аудио
Идентификатор : 2
Формат : AC-3
Формат/Информация : Audio Coding 3
Коммерческое название : Dolby Digital
Идентификатор кодека : A_AC3
Продолжительность : 52 м. 27 с.
Вид битрейта : Постоянный
Битрейт : 192 Кбит/сек
Каналы : 2 канала
Channel layout : L R
Частота : 48,0 КГц
Частота кадров : 31,250 кадров/сек (1536 SPF)
Битовая глубина : 16 бит
Метод сжатия : С потерями
Задержка видео : -61 мс.
Размер потока : 72,0 Мбайт (6%)
ServiceKind/String : Complete Main
Default : Да
Forced : Нет








   Похожие торренты   Торрент   Размер 
В этой теме нет новых непрочитанных сообщений. Ищейка (2 сезон 1-14 серии из 16) (Дмитрий Брусникин) [2018, детектив, WEB-DL 720p]

7 | 15

16.49 ГБ

В этой теме нет новых непрочитанных сообщений. Ищейка (3 сезон 1-3 серии из 16) (Дмитрий Брусникин) [2018, детектив, WEB-DL 720p]

4 | 2

3.58 ГБ

В этой теме нет новых непрочитанных сообщений. Ищейка (2 сезон 1-8 серии из 16) (Дмитрий Брусникин) [2018, детектив, WEB-DL 720p]

6 | 2

9.47 ГБ

В этой теме нет новых непрочитанных сообщений. Ищейка (2 сезон 1-16 серии из 16) (Дмитрий Брусникин) [2018, детектив, WEB-DL 720p]

9 | 1

18.89 ГБ

В этой теме нет новых непрочитанных сообщений. Ищейка (3 сезон 1-12 серии из 16) (Дмитрий Брусникин) [2018, детектив, WEB-DL 720p]

2 | 15

14.4 ГБ

В этой теме нет новых непрочитанных сообщений. Ищейка (3 сезон 1-8 серии из 16) (Дмитрий Брусникин) [2018, детектив, WEB-DL 720p]

11 | 10

9.65 ГБ

В этой теме нет новых непрочитанных сообщений. Ищейка (3 сезон 1- серии из 16) (Дмитрий Брусникин) [2018, детектив, WEB-DL 720p]

11 | 0

1.2 ГБ




Вы не можете начинать темы
Вы не можете отвечать на сообщения
Вы не можете редактировать свои сообщения
Вы не можете удалять свои сообщения
Вы не можете добавлять вложения

Перейти:  
 Вход
ppkBB3cker v.2 © 2008-2014 @ PPK
[ Time : 0.026s | 16 Queries | GZIP : Off ]

cron