img image001 image001 image001 image001 image001 image001 image001 image001 image001 image001 image001 image001 image001 image001 image001 image001

Planets Sun Sun Sun
Статистика раздачи
Автор: Снежана | Размер: 9.32 ГБ | Добавлен: 13 сен 2018
Раздают: 17    Качают: 15
Скачать торрент
Скачать торрент
Описание торрента

СообщениеДобавлено: 13 сен 2018 

Ищейка (3 сезон 1-7 серии из 16)

Перевод: Отсутствует, cубтитры: отсутствуют
Формат: HDTVRip 720p, MKV, H.264, AC3
Страна: Россия
Режиссер: Дмитрий Брусникин
Жанр: детектив
Всего серий: 16
Продолжительность: 7 х ~ 00:50:00
Год выпуска: 2018

В ролях: Анна Банщикова, Александр Макогон, Ольга Литвинова, Денис Бургазлиев, Владислав Павлов, Эдуард Чекмазов, Владимир Николенко, Анатолий Гущин, Ирина Пулина, Дмитрий Миллер, Дарья Антонюк, Юрий Грубник, Анастасия Великородная, Александр Мосолов, Дмитрий Комов, Евгений Кушпель, Яна Палецкая, Сергей Ланбамин, Мария Шляпина, Владимир Канухин, Антон Кузнецов, Алёна Мордовина, Сергей Цепов, Анастасия Сорокина

Описание: Жизнь подполковника Александры Кушнир постепенно возвращается в привычное русло. Кажется, героиня научилась выпутываться из самых сложных ситуаций, и её уже ничем не удивить. Но внезапно всего лишь один визит к врачу переворачивает всё с ног на голову. Расследования, быт героини, её отношения с близкими – ничто уже не будет прежним...

Рейтинг и доп. информация:


Видео: 1280х720 (16:9), 25 fps, AVC MPEG-4 (x264), ~ 3500 kbps , 0.152 bit/pixel
Аудио: 48 kHz, AC3, 2/0 (L,R) ch, ~192.00 kbps avg
Внимание! Раздача ведётся путём добавления новых серий. При каждом добавлении создаётся новый торрент.
Чтобы начать докачку новой серии, пользователям необходимо сделать следующее:
1. Остановить скачивание.
2. Удалить старый торрент у себя из клиента (старые серии удалять не надо).
3. Скачать новый торрент и запустить его у себя в клиенте вместо старого, при этом указать клиенту путь в старую папку куда и должно происходить скачивание новых серий. Ваш клиент при этом должен произвести хеширование (проверку) старой папки и будет докачивать только те серии, которых у вас ещё нет. Старые серии при этом не удаляются, а продолжают раздаваться! Eсли вы уже удалили старые серии, то предотвратить повторную закачку старых серий можно, отжав галочку в соответствующих местах при запуске нового торрента.


Общее
Уникальный идентификатор : 170622885295429235166170248289942125258 (0x805CC5BBEDDE2211AD44532E3A563ACA)
Полное имя : C:\Ishhejka-3.HDTVRip.(720p).GeneralFilm\01.Ishhejka-3.HDTVRip.(720p).GeneralFilm.mkv
Формат : Matroska
Версия формата : Version 2
Размер файла : 1,33 Гбайт
Продолжительность : 51 м. 42 с.
Общий поток : 3693 Кбит/сек
Дата кодирования : UTC 2018-09-03 16:41:44
Программа кодирования : mkvmerge v7.8.0 ('River Man') 32bit built on Apr 3 2015 12:11:22
Библиотека кодирования : libebml v1.3.1 + libmatroska v1.4.2

Видео
Идентификатор : 1
Формат : AVC
Формат/Информация : Advanced Video Codec
Профиль формата :
Настройки формата : CABAC / 9 Ref Frames
Параметр CABAC формата : Да
Параметр RefFrames формата : 9 кадров
Идентификатор кодека : V_MPEG4/ISO/AVC
Продолжительность : 51 м. 42 с.
Битрейт : 3500 Кбит/сек
Ширина : 1280 пикселей
Высота : 720 пикселей
Соотношение сторон : 16:9
Режим частоты кадров : Постоянный
Частота кадров : 25,000 кадров/сек
Цветовое пространство : YUV
Субдискретизация насыщенности : 4:2:0
Битовая глубина : 8 бит
Тип развёртки : Прогрессивная
Бит/(Пиксели*Кадры) : 0.152
Размер потока : 1,24 Гбайт (93%)
Библиотека кодирования : x264 core 146 r2538 121396c
Настройки программы : cabac=1 / ref=9 / deblock=1:-2:-1 / analyse=0x3:0x113 / me=umh / subme=9 / psy=1 / psy_rd=1.00:0.15 / mixed_ref=1 / me_range=32 / chroma_me=1 / trellis=2 / 8x8dct=1 / cqm=0 / deadzone=21,11 / fast_pskip=0 / chroma_qp_offset=-3 / threads=18 / lookahead_threads=3 / sliced_threads=0 / nr=0 / decimate=1 / interlaced=0 / bluray_compat=0 / constrained_intra=0 / bframes=9 / b_pyramid=2 / b_adapt=2 / b_bias=0 / direct=1 / weightb=1 / open_gop=0 / weightp=2 / keyint=250 / keyint_min=25 / scenecut=40 / intra_refresh=0 / rc_lookahead=40 / rc=2pass / mbtree=0 / bitrate=3500 / ratetol=1.0 / qcomp=0.60 / qpmin=0 / qpmax=69 / qpstep=4 / cplxblur=20.0 / qblur=0.5 / vbv_maxrate=14000 / vbv_bufsize=14000 / nal_hrd=none / filler=0 / ip_ratio=1.40 / pb_ratio=1.30 / aq=2:1.00
Default : Да
Forced : Нет
Цветовой диапазон : Limited
Основные цвета : BT.709
Характеристики трансфера : BT.709
Коэффициенты матрицы : BT.709

Аудио
Идентификатор : 2
Формат : AC-3
Формат/Информация : Audio Coding 3
Коммерческое название : Dolby Digital
Идентификатор кодека : A_AC3
Продолжительность : 51 м. 42 с.
Вид битрейта : Постоянный
Битрейт : 192 Кбит/сек
Каналы : 2 канала
Channel layout : L R
Частота : 48,0 КГц
Частота кадров : 31,250 кадров/сек (1536 SPF)
Битовая глубина : 16 бит
Метод сжатия : С потерями
Размер потока : 71,0 Мбайт (5%)
ServiceKind/String : Complete Main
Default : Да
Forced : Нет








   Похожие торренты   Торрент   Размер 
В этой теме нет новых непрочитанных сообщений. Ищейка (2 сезон 1-16 серии из 16) (Дмитрий Брусникин) [2018, детектив, HDTVRip 720p]

12 | 1

20.94 ГБ

В этой теме нет новых непрочитанных сообщений. Ищейка (3 сезон 1-10 серии из 16) (Дмитрий Брусникин) [2018, детектив, HDTVRip 720p]

0 | 0

13.31 ГБ

В этой теме нет новых непрочитанных сообщений. Ищейка (3 сезон 1- серии из 16) (Дмитрий Брусникин) [2018, детектив, HDTVRip 720p]

19 | 0

1.33 ГБ

В этой теме нет новых непрочитанных сообщений. Ищейка (3 сезон 1-5 серии из 16) (Дмитрий Брусникин) [2018, детектив, HDTVRip 720p]

0 | 0

6.67 ГБ

В этой теме нет новых непрочитанных сообщений. Ищейка (3 сезон 1-11 серии из 16) (Дмитрий Брусникин) [2018, детектив, HDTVRip 720p]

6 | 11

14.62 ГБ

В этой теме нет новых непрочитанных сообщений. Ищейка (3 сезон 1-14 серии из 16) (Дмитрий Брусникин) [2018, детектив, HDTVRip 720p]

0 | 5

18.58 ГБ

В этой теме нет новых непрочитанных сообщений. Ищейка (3 сезон 1-8 серии из 16) (Дмитрий Брусникин) [2018, детектив, HDTVRip 720p]

18 | 20

10.69 ГБ




Вы не можете начинать темы
Вы не можете отвечать на сообщения
Вы не можете редактировать свои сообщения
Вы не можете удалять свои сообщения
Вы не можете добавлять вложения

Перейти:  
 Вход
ppkBB3cker v.2 © 2008-2014 @ PPK
[ Time : 0.031s | 16 Queries | GZIP : Off ]

cron