img image001 image001 image001 image001 image001 image001 image001 image001 image001 image001 image001 image001 image001 image001 image001 image001

Planets Sun Sun Sun
Статистика раздачи
Автор: Снежана | Размер: 12.26 ГБ | Добавлен: 14 сен 2018
Раздают: 117    Качают: 36
Скачать торрент
Скачать торрент
Описание торрента

СообщениеДобавлено: 14 сен 2018 

Балабол (2 сезон 1-16 серии из 16)

Перевод: Не требуется, cубтитры: отсутствуют
Формат: WEBRip-AVC, MKV, H.264, AC3
Страна: Россия
Режиссер: Владимир Мельник
Жанр: детектив, комедия, криминал
Всего серий: 16
Продолжительность: 16 x ~ 00:44:00
Год выпуска: 2018

В ролях: Константин Юшкевич, Илья Шляга, Вадим Андреев, Инга Оболдина, Ирина Низина, Мария Пирогова, Иван Агапов, Александр Самойлов, Игорь Старосельцев, Елена Чарквиани, Алексей Михайлов (II), Антон Ескин, Борис Каморзин, Константин Тополага, Сергей Неудачин, Екатерина Виноградова (III), Сергей Галахов, Владимир Шульга, Эрика Эвер, Всеволод Макаров, Артем Сучков, Егор Бедуля, Шухрат Курбанов, Элеонора Ильченко, Константин Похмелов, Елена Грибова, Ольга Лебедева (II), Анжелика Маркелова, Венчислав Хотяновский, Максим Важов, Алексей Жиров, Ольга Родина, Александр Мякушко, Александр Воробьёв (II), Александр Шам, Роман Колотухин, Михаил Половенко, Егор (Георгий) Сальников, Александра Богданова, Дарья Макарова, Антон Гурьянов, Антон Косточкин, Кирилл Анисимов, Анна Глазкова, Андрей Новиков (IV), Роман Печерский, Марина Кангелари, Максим Дромашко, Юрий Анпилогов, Кузьма Сапрыкин, Михаил Панюков, Вячеслав Ганенко, Константин Быков, Илья Сланевский, Олег Жуков, Игорь Бровин, Дмитрий Асташевич, Сергей Ююкин, Марина Соколова, Артём Штепура, Анзор Тхайцуков, Владимир Станиславской, Дарья Дроботова, Никита Абдулов, Алексей Успенский (II), Ольга Авилова, Янина Хачатурова, Александр Коньшин, Григорий Адаменко, Наталья Тищенко

Описание: Провинциальный оперативник Саня Балабин – волк-одиночка с неиссякаемым чувством юмора, который твердо уверен: со своими личными проблемами и любыми трудностями на работе он сможет справиться без чьей-либо помощи. Эту уверенность Балабина часто рушит сама жизнь, которая все время подкидывает ему просто безвыходные ситуации, и тут на выручку стражу порядка приходят его верные друзья Грибанов и Кузнечик.. В интересах следствия Балабину нередко приходится иметь дело с женщинами легкого поведения и мелкими мошенниками, бомжами и бродячими музыкантами. В новом сезоне Саня продолжит разбираться с бесконечным ворохом криминальных историй, а также всерьез займется личной жизнью и попытается вернуть жену. Любимая бросила его после 19 лет брака, сказав, что супруг женат только на своей работе. Дочь Маша объявляет о своей скорой свадьбе, и по случаю предстоящего торжества у Балабина наступает краткое перемирие с женой. Но героя временное затишье не устраивает, и ради сохранения семьи он готов пойти на отчаянный поступок…

Рейтинг и доп. информация:


Видео: 1024x576 (16:9), 25 fps, AVC MPEG-4 (x264), ~ 2000 kbps , 0.136 bit/pixel
Аудио: 48 kHz, AC3, 2/0 (L,R) ch, ~192 kbps
Общее
Уникальный идентификатор : 233607545203226608328589767788071699478 (0xAFBF2D393526167A9735CED9421B4416)
Полное имя : C:\Балабол.s02.(2018).WEB-DLRip.(AVC).Files-x\01.Balabol.s02.(2018).WEB-DLRip.(AVC).by.Серый1779.Files-x.mkv
Формат : Matroska
Версия формата : Version 2
Размер файла : 779 Мбайт
Продолжительность : 49 м. 44 с.
Общий поток : 2188 Кбит/сек
Дата кодирования : UTC 2018-09-03 22:38:23
Программа кодирования : mkvmerge v7.8.0 ('River Man') 32bit built on Apr 3 2015 12:11:22
Библиотека кодирования : libebml v1.3.1 + libmatroska v1.4.2

Видео
Идентификатор : 1
Формат : AVC
Формат/Информация : Advanced Video Codec
Профиль формата :
Настройки формата : CABAC / 9 Ref Frames
Параметр CABAC формата : Да
Параметр RefFrames формата : 9 кадров
Идентификатор кодека : V_MPEG4/ISO/AVC
Продолжительность : 49 м. 44 с.
Битрейт : 2000 Кбит/сек
Ширина : 1024 пикселя
Высота : 576 пикселей
Соотношение сторон : 16:9
Режим частоты кадров : Постоянный
Частота кадров : 25,000 кадров/сек
Цветовое пространство : YUV
Субдискретизация насыщенности : 4:2:0
Битовая глубина : 8 бит
Тип развёртки : Прогрессивная
Бит/(Пиксели*Кадры) : 0.136
Размер потока : 695 Мбайт (89%)
Библиотека кодирования : x264 core 146 r2538 121396c
Настройки программы : cabac=1 / ref=9 / deblock=1:-2:-1 / analyse=0x3:0x133 / me=umh / subme=9 / psy=1 / psy_rd=1.00:0.15 / mixed_ref=1 / me_range=32 / chroma_me=1 / trellis=2 / 8x8dct=1 / cqm=0 / deadzone=21,11 / fast_pskip=0 / chroma_qp_offset=-3 / threads=18 / lookahead_threads=3 / sliced_threads=0 / nr=0 / decimate=1 / interlaced=0 / bluray_compat=0 / constrained_intra=0 / bframes=9 / b_pyramid=2 / b_adapt=2 / b_bias=0 / direct=1 / weightb=1 / open_gop=0 / weightp=2 / keyint=250 / keyint_min=25 / scenecut=40 / intra_refresh=0 / rc=2pass / mbtree=0 / bitrate=2000 / ratetol=1.0 / qcomp=0.60 / qpmin=0 / qpmax=69 / qpstep=4 / cplxblur=20.0 / qblur=0.5 / ip_ratio=1.40 / pb_ratio=1.30 / aq=2:1.00
Default : Да
Forced : Нет
Цветовой диапазон : Limited
Основные цвета : BT.709
Характеристики трансфера : BT.709
Коэффициенты матрицы : BT.709

Аудио
Идентификатор : 2
Формат : AC-3
Формат/Информация : Audio Coding 3
Коммерческое название : Dolby Digital
Идентификатор кодека : A_AC3
Продолжительность : 49 м. 44 с.
Вид битрейта : Постоянный
Битрейт : 192 Кбит/сек
Каналы : 2 канала
Channel layout : L R
Частота : 48,0 КГц
Частота кадров : 31,250 кадров/сек (1536 SPF)
Битовая глубина : 16 бит
Метод сжатия : С потерями
Размер потока : 68,3 Мбайт (9%)
ServiceKind/String : Complete Main
Default : Да
Forced : Нет








   Похожие торренты   Торрент   Размер 
В этой теме нет новых непрочитанных сообщений. Балабол (2 сезон 1-14 серии из 16) (Владимир Мельник) [2018, детектив, комедия, криминал, WEBRip]

21 | 27

8.3 ГБ

В этой теме нет новых непрочитанных сообщений. Балабол (2 сезон 1-6 серии из 16) (Владимир Мельник) [2018, детектив, комедия, криминал, WEBRip]

20 | 6

3.59 ГБ

В этой теме нет новых непрочитанных сообщений. Балабол (2 сезон 1-8 серии из 16) (Владимир Мельник) [2018, детектив, комедия, криминал, WEBRip]

202 | 76

4.76 ГБ

В этой теме нет новых непрочитанных сообщений. Балабол (2 сезон 1-4 серии из 16) (Владимир Мельник) [2018, детектив, комедия, криминал, WEBRip]

11 | 2

2.4 ГБ

В этой теме нет новых непрочитанных сообщений. Балабол (2 сезон 1-2 серии из 16) (Владимир Мельник) [2018, детектив, комедия, криминал, WEBRip-AVC]

17 | 8

1.54 ГБ

В этой теме нет новых непрочитанных сообщений. Балабол (2 сезон 1-10 серии из 16) (Владимир Мельник) [2018, детектив, комедия, криминал, WEBRip]

28 | 29

5.89 ГБ

В этой теме нет новых непрочитанных сообщений. Балабол (2 сезон 1-6 серии из 16) (Владимир Мельник) [2018, детектив, комедия, криминал, WEBRip-AVC]

36 | 11

4.62 ГБ




Вы не можете начинать темы
Вы не можете отвечать на сообщения
Вы не можете редактировать свои сообщения
Вы не можете удалять свои сообщения
Вы не можете добавлять вложения

Перейти:  
 Вход
ppkBB3cker v.2 © 2008-2014 @ PPK
[ Time : 0.029s | 16 Queries | GZIP : Off ]

cron