img image001 image001 image001 image001 image001 image001 image001 image001 image001 image001 image001 image001 image001 image001 image001 image001

Planets Sun Sun Sun
Статистика раздачи
Автор: Снежана | Размер: 4.67 ГБ | Добавлен: 03 окт 2018
Раздают: 5    Качают: 0
Скачать торрент
Скачать торрент
Описание торрента

СообщениеДобавлено: 03 окт 2018 

Конная полиция (1-6 серии из 16)

Перевод: Не требуется, cубтитры: отсутствуют
Формат: WEBRip 1080p, MKV, H.264, AC3
Страна: Россия
Режиссер: Артем Лемперт, Павел Орешин
Жанр: комедия
Всего серий: 16
Продолжительность: 6 х ~ 00:25:00
Год выпуска: 2018

В ролях: Артур Смольянинов, Наталия Медведева (III), Стася Милославская, Алексей Симонов, Борис Дергачев, Артём Гайдуков, Артём Костюнев, Юрий Ицков, Александр Тютрюмов, Анна Галинова

Описание: Комедийный сериал с Артуром Смольяниновым в главной роли. Его герой, дерзкий и самоуверенный полицейский, берет взятки, крышует подпольное казино, где и спускает все свои деньги, а потом в нетрезвом виде разъезжает по городу. Во время одной из таких поездок он совершает серьезное правонарушение и в качестве наказания получает распределение в полк конной полиции.

Рейтинг и доп. информация:


Видео: 1920x1080 (16:9), 25 fps, AVC MPEG-4 (x264), Baseline@L4 ~ 5000 kbps , 0.096 bit/pixel
Аудио: 48 kHz, АС3, 2/0 (L,R), ~192.00 kbps avg
Внимание! Раздача ведётся путём добавления новых серий. При каждом добавлении создаётся новый торрент.
Чтобы начать докачку новой серии, пользователям необходимо сделать следующее:
1. Остановить скачивание.
2. Удалить старый торрент у себя из клиента (старые серии удалять не надо).
3. Скачать новый торрент и запустить его у себя в клиенте вместо старого, при этом указать клиенту путь в старую папку куда и должно происходить скачивание новых серий. Ваш клиент при этом должен произвести хеширование (проверку) старой папки и будет докачивать только те серии, которых у вас ещё нет. Старые серии при этом не удаляются, а продолжают раздаваться! Eсли вы уже удалили старые серии, то предотвратить повторную закачку старых серий можно, отжав галочку в соответствующих местах при запуске нового торрента.


Общее
Уникальный идентификатор : 237686280290021464508380931169659837172 (0xB2D0B663A6B6955C81EF5D541CE2DAF4)
Полное имя : C:\Konnaya.politsiya.2018.WEB-DL.(1080p).Getty\Konnaya.politsiya.e01.2018.WEB-DL.(1080p).Getty.mkv
Формат : Matroska
Версия формата : Version 4
Размер файла : 785 Мбайт
Продолжительность : 21 м. 24 с.
Режим общего битрейта : Постоянный
Общий поток : 5127 Кбит/сек
Название фильма : Konnaya.politsiya.e01.2018.WEB-DL.(1080p).Getty
Дата кодирования : UTC 2018-09-30 20:11:39
Программа кодирования : mkvmerge v7.8.0 ('River Man') 32bit built on Mar 27 2015 16:18:02
Библиотека кодирования : libebml v1.3.1 + libmatroska v1.4.2

Видео
Идентификатор : 1
Формат : AVC
Формат/Информация : Advanced Video Codec
Профиль формата : Baseline@L4
Настройки формата : 4 Ref Frames
Параметр CABAC формата : Нет
Параметр RefFrames формата : 4 кадра
Идентификатор кодека : V_MPEG4/ISO/AVC
Продолжительность : 21 м. 24 с.
Вид битрейта : Постоянный
Битрейт : 5000 Кбит/сек
Ширина : 1920 пикселей
Высота : 1080 пикселей
Соотношение сторон : 16:9
Режим частоты кадров : Постоянный
Частота кадров : 25,000 кадров/сек
Стандарт вещания : PAL
Цветовое пространство : YUV
Субдискретизация насыщенности : 4:2:0
Битовая глубина : 8 бит
Тип развёртки : Прогрессивная
Бит/(Пиксели*Кадры) : 0.096
Размер потока : 755 Мбайт (96%)
Default : Да
Forced : Нет
Цветовой диапазон : Limited
Основные цвета : BT.709
Характеристики трансфера : BT.709
Коэффициенты матрицы : BT.709

Аудио
Идентификатор : 2
Формат : AC-3
Формат/Информация : Audio Coding 3
Коммерческое название : Dolby Digital
Идентификатор кодека : A_AC3
Продолжительность : 21 м. 24 с.
Вид битрейта : Постоянный
Битрейт : 192 Кбит/сек
Каналы : 2 канала
Channel layout : L R
Частота : 48,0 КГц
Частота кадров : 31,250 кадров/сек (1536 SPF)
Битовая глубина : 16 бит
Метод сжатия : С потерями
Размер потока : 29,4 Мбайт (4%)
ServiceKind/String : Complete Main
Default : Да
Forced : Нет








   Похожие торренты   Торрент   Размер 
В этой теме нет новых непрочитанных сообщений. Конная полиция (1-10 серии из 16) (Артем Лемперт, Павел Орешин) [2018, комедия, WEBRip 1080p]

0 | 0

7.88 ГБ

В этой теме нет новых непрочитанных сообщений. Конная полиция (1-15 серии из 16) (Артем Лемперт, Павел Орешин) [2018, комедия, WEBRip 1080p]

3 | 5

11.76 ГБ

В этой теме нет новых непрочитанных сообщений. Конная полиция (1-13 серии из 16) (Артем Лемперт, Павел Орешин) [2018, комедия, WEBRip 1080p]

0 | 0

10.16 ГБ

В этой теме нет новых непрочитанных сообщений. Конная полиция (1-16 серии из 16) (Артем Лемперт, Павел Орешин) [2018, комедия, WEBRip 1080p]

28 | 35

12.52 ГБ

В этой теме нет новых непрочитанных сообщений. Конная полиция (1-14 серии из 16) (Артем Лемперт, Павел Орешин) [2018, комедия, WEBRip 1080p]

23 | 55

10.97 ГБ

В этой теме нет новых непрочитанных сообщений. Конная полиция (1-4 серии из 16) (Артем Лемперт, Павел Орешин) [2018, комедия, WEBRip 1080p]

0 | 0

3.03 ГБ

В этой теме нет новых непрочитанных сообщений. Конная полиция (1-9 серии из 16) (Артем Лемперт, Павел Орешин) [2018, комедия, WEBRip 1080p]

0 | 0

7.09 ГБ




Вы не можете начинать темы
Вы не можете отвечать на сообщения
Вы не можете редактировать свои сообщения
Вы не можете удалять свои сообщения
Вы не можете добавлять вложения

Перейти:  
 Вход
ppkBB3cker v.2 © 2008-2014 @ PPK
[ Time : 0.024s | 16 Queries | GZIP : Off ]

cron