img image001 image001 image001 image001 image001 image001 image001 image001 image001 image001 image001 image001 image001 image001 image001 image001

Planets Sun Sun Sun
Статистика раздачи
Автор: Снежана | Размер: 8.06 ГБ | Добавлен: 05 окт 2018
Раздают: 7    Качают: 1
Скачать торрент
Скачать торрент
Описание торрента

СообщениеДобавлено: 05 окт 2018 

Разведчицы (1-12 серии из 12)

Перевод: Не требуется, cубтитры: отсутствуют
Формат: WEB-DLRip, MKV, H.264, AC3
Страна: Россия
Режиссер: Феликс Герчиков
Жанр: военный, драма
Всего серий: 12
Продолжительность: 12 х ~ 00:49:00
Год выпуска: 2013
В ролях: Светлана Иванова, Светлана Устинова, Владимир Вдовиченков, Ирина Апексимова, Евгений Пронин, Анатолий Руденко, Николай Добрынин, Елизавета Лотова, Лянка Грыу, Александра Мареева, Анна Халиулина, Олег Морозов, Маркус Кунце, Михаил Елисеев, Сергей Мардарь, Юрий Орлов (II), Игорь Копылов, Оксана Базилевич, Алиса Миронова, Кирилл Жандаров, Олеся Бойко, Екатерина Рудакова, Александр Ситников, Александр Петров (X), Наталья Зацепина, Евгений Павлов (IV), Павел Миронов, Олег Малышев, Кирилл Горбунов, Ирина Основина
Описание:
О драматическом переплетении судеб двух девушек-разведчиц в годы Второй мировой. Арина Прозоровская – идеалистка, убежденная комсомолка, выросшая в интеллигентной семье. Зоя Величко – деревенская девушка, дочь репрессированного кулака, волей судеб оказавшаяся в уголовной среде и набравшаяся там некоторого цинизма. Незадолго до войны обе девушки оказываются в разведшколе, которой руководит опытный разведчик майор Воротынников. Обстоятельства, при которых девушки начинают учебу, весьма трагические. На Арине "висит" обвинение в измене Родине, и служба для нее единственный шанс оправдаться. Зою обвиняют в убийстве матери Арины, которое произошло незадолго до того, как девушки попали в разведшколу. И хотя Зоя не совершала убийства, и даже пыталась помешать ему, доказательств у нее нет. Поэтому для Зои работа на государство – также единственная возможность избежать наказания.



Видео: 1024x576 (16:9), 25 fps, AVC Н.264 AVC ~1776 kbps avg, 0.120 bit/pixel
Аудио: 48 kHz, АС3, 2 ch, ~192.00 kbps avg

Доп. информация:
Релиз от Агентик

Общее
Уникальный идентификатор : 326300049923065184429062360546638059948 (0xF57B1A8C187491F180E9C9BA54F059AC)
Полное имя : H:\Разведчицы\Разведчицы - 01.mkv
Формат : Matroska
Версия формата : Version 4
Размер файла : 715 Мбайт
Продолжительность : 50 м. 44 с.
Общий поток : 1970 Кбит/сек
Название фильма : Разведчицы - 01 / 2013 / WEB-DLRip (AVC) / Агентик
Дата кодирования : UTC 2018-10-02 08:35:35
Программа кодирования : mkvmerge v27.0.0 ('Metropolis') 32-bit
Библиотека кодирования : libebml v1.3.6 + libmatroska v1.4.9

Видео
Идентификатор : 1
Формат : AVC
Формат/Информация : Advanced Video Codec
Профиль формата : High@L4
Настройки формата : CABAC / 10 Ref Frames
Параметр CABAC формата : Да
Параметр RefFrames формата : 10 кадров
Идентификатор кодека : V_MPEG4/ISO/AVC
Продолжительность : 50 м. 44 с.
Битрейт : 1776 Кбит/сек
Ширина : 1024 пикселя
Высота : 576 пикселей
Соотношение сторон : 16:9
Режим частоты кадров : Постоянный
Частота кадров : 25,000 кадров/сек
Цветовое пространство : YUV
Субдискретизация насыщенности : 4:2:0
Битовая глубина : 8 бит
Тип развёртки : Прогрессивная
Бит/(Пиксели*Кадры) : 0.120
Размер потока : 645 Мбайт (90%)
Заголовок : Рип от Агентик
Библиотека кодирования : x264 core 155 r2901M 7d0ff22
Настройки программы : cabac=1 / ref=10 / deblock=1:-1:-1 / analyse=0x3:0x133 / me=umh / subme=10 / psy=1 / psy_rd=1.00:0.20 / mixed_ref=1 / me_range=40 / chroma_me=1 / trellis=2 / 8x8dct=1 / cqm=1 / deadzone=20,10 / fast_pskip=1 / chroma_qp_offset=-3 / threads=3 / lookahead_threads=1 / sliced_threads=0 / nr=0 / decimate=1 / interlaced=0 / bluray_compat=0 / constrained_intra=0 / bframes=10 / b_pyramid=2 / b_adapt=2 / b_bias=0 / direct=3 / weightb=1 / open_gop=0 / weightp=2 / keyint=250 / keyint_min=25 / scenecut=40 / intra_refresh=0 / rc_lookahead=40 / rc=2pass / mbtree=1 / bitrate=1776 / ratetol=1.0 / qcomp=0.60 / qpmin=4 / qpmax=60 / qpstep=4 / cplxblur=20.0 / qblur=0.5 / ip_ratio=1.40 / aq=3:1.00
Язык : Russian
Default : Да
Forced : Нет

Аудио
Идентификатор : 2
Формат : AC-3
Формат/Информация : Audio Coding 3
Коммерческое название : Dolby Digital
Идентификатор кодека : A_AC3
Продолжительность : 50 м. 44 с.
Вид битрейта : Постоянный
Битрейт : 192 Кбит/сек
Каналы : 2 канала
Channel layout : L R
Частота : 48,0 КГц
Частота кадров : 31,250 кадров/сек (1536 SPF)
Битовая глубина : 16 бит
Метод сжатия : С потерями
Размер потока : 69,7 Мбайт (10%)
Заголовок : Русский
Язык : Russian
ServiceKind/String : Complete Main
Default : Да
Forced : Нет










   Похожие торренты   Торрент   Размер 
В этой теме нет новых непрочитанных сообщений. Плакучая ива (1-4 серии из 12) (Феликс Герчиков) [2018, мелодрама, WEB-DLRip-AVC]

8 | 0

1.43 ГБ

В этой теме нет новых непрочитанных сообщений. Плакучая ива (1-12 серии из 12) (Феликс Герчиков) [2015, мелодрама, WEB-DLRip-AVC]

43 | 1

4.84 ГБ

В этой теме нет новых непрочитанных сообщений. Плакучая ива (1-12 серии из 12) (Феликс Герчиков) [2015, мелодрама, WEB-DLRip]

35 | 5

4.72 ГБ

В этой теме нет новых непрочитанных сообщений. Плакучая ива (1-4 серии из 12) (Феликс Герчиков) [2018, мелодрама, WEB-DLRip]

3 | 0

1.38 ГБ

В этой теме нет новых непрочитанных сообщений. Плакучая ива (1-12 серии из 12) (Феликс Герчиков) [2015, мелодрама, HDTV 1080p]

20 | 2

19.61 ГБ

В этой теме нет новых непрочитанных сообщений. Плакучая ива (1-4 серии из 12) (Феликс Герчиков) [2015, мелодрама, HDTVRip 720p]

4 | 0

3.37 ГБ

В этой теме нет новых непрочитанных сообщений. Плакучая ива (1-4 серии из 12) (Феликс Герчиков) [2015, мелодрама, HDTV 1080p]

17 | 4

5.82 ГБ




Вы не можете начинать темы
Вы не можете отвечать на сообщения
Вы не можете редактировать свои сообщения
Вы не можете удалять свои сообщения
Вы не можете добавлять вложения

Перейти:  
 Вход
ppkBB3cker v.2 © 2008-2014 @ PPK
[ Time : 0.022s | 17 Queries | GZIP : Off ]

cron