img image001 image001 image001 image001 image001 image001 image001 image001 image001 image001 image001 image001 image001 image001 image001 image001

Planets Sun Sun Sun
Статистика раздачи
Автор: Снежана | Размер: 20.3 ГБ | Добавлен: 15 окт 2018
Раздают: 1    Качают: 2
Скачать торрент
Скачать торрент
Описание торрента

СообщениеДобавлено: 15 окт 2018 

Папаньки (1-12 серии из 16)

Перевод: Не требуется, cубтитры: отсутствуют
Формат: WEB-DL 1080p, MKV, H.264, AC3
Страна: Украина
Режиссер: Ирина Васильева (II), Александр Кананович
Жанр: комедия
Всего серий: 16
Продолжительность: 12 х 00:42:00
Год выпуска: 2018

В ролях: Егор Крутоголов, Евгений Гашенко, Евгений Сморигин, Андрей Фединчик, Лилия Ребрик, Демьян Шиян, Ольга Арутюнян, Вероника Лукьяненко, Ольга Лукьяненко, Надежда Кондратовская, Анна Варпаховская, Олег Стальчук, Вячеслав Хостикоев, Александр Ярема, Олег Иваница, Лариса Трояновская, Татьяна Зиновенко, Анатолий Зиновенко, Александр Бережок, Александр Бегма, Мария Мархай

Описание: Четверо друзей живут в одном дворе столичной многоэтажки. Кроме чисто мужских интересов, их объединяет важная тема – воспитание детей. Один из героев только готовится стать отцом, другой воспитывает 7-летнего сына, а третий – сына и двух дочек разного возраста. Герои безумно любят своих детей, гордятся их успехами и активно вовлечены в их воспитание. Только иногда отцы забывают, что сами уже выросли. И есть у них ещё четвёртый друг – заядлый холостяк и ловелас, который категорически не хочет заводить детей.

Рейтинг и доп. информация:


Видео: 1920x1080 (16:9), 25 fps, AVC MPEG-4 (x264), High@L4 ~ 4800 kbps , 0.093 bit/pixel
Аудио: 44 kHz, AC3, 2/0 (L,R) ch, ~192.00 kbps
Внимание! Раздача ведётся путём добавления новых серий. При каждом добавлении создаётся новый торрент.
Чтобы начать докачку новой серии, пользователям необходимо сделать следующее:
1. Остановить скачивание.
2. Удалить старый торрент у себя из клиента (старые серии удалять не надо).
3. Скачать новый торрент и запустить его у себя в клиенте вместо старого, при этом указать клиенту путь в старую папку куда и должно происходить скачивание новых серий. Ваш клиент при этом должен произвести хеширование (проверку) старой папки и будет докачивать только те серии, которых у вас ещё нет. Старые серии при этом не удаляются, а продолжают раздаваться! Eсли вы уже удалили старые серии, то предотвратить повторную закачку старых серий можно, отжав галочку в соответствующих местах при запуске нового торрента.


Общее
Уникальный идентификатор : 203446576240869669881387196409823122076 (0x990E62A4C282D1E925205F582E14529C)
Полное имя : C:\Папаньки.s01.2018.WEB-DL (1080p).by.Nicodem.Files-x\01.Папаньки.s01.E01.2018.WEB-DL (1080p).by.Nicodem.Files-x.mkv
Формат : Matroska
Версия формата : Version 4
Размер файла : 1,50 Гбайт
Продолжительность : 42 м. 1 с.
Общий поток : 5095 Кбит/сек
Программа кодирования : Lavf56.36.100
Библиотека кодирования : Lavf56.36.100

Видео
Идентификатор : 1
Формат : AVC
Формат/Информация : Advanced Video Codec
Профиль формата : High@L4
Настройки формата : CABAC / 4 Ref Frames
Параметр CABAC формата : Да
Параметр RefFrames формата : 4 кадра
Идентификатор кодека : V_MPEG4/ISO/AVC
Продолжительность : 42 м. 1 с.
Битрейт : 4800 Кбит/сек
Ширина : 1920 пикселей
Высота : 1080 пикселей
Соотношение сторон : 16:9
Режим частоты кадров : Постоянный
Частота кадров : 25,000 кадров/сек
Цветовое пространство : YUV
Субдискретизация насыщенности : 4:2:0
Битовая глубина : 8 бит
Тип развёртки : Прогрессивная
Бит/(Пиксели*Кадры) : 0.093
Размер потока : 1,41 Гбайт (94%)
Default : Да
Forced : Нет

Аудио
Идентификатор : 2
Формат : AC-3
Формат/Информация : Audio Coding 3
Коммерческое название : Dolby Digital
Идентификатор кодека : A_AC3
Продолжительность : 42 м. 1 с.
Вид битрейта : Постоянный
Битрейт : 192 Кбит/сек
Каналы : 2 канала
Channel layout : L R
Частота : 44,1 КГц
Частота кадров : 28,711 кадров/сек (1536 SPF)
Битовая глубина : 16 бит
Метод сжатия : С потерями
Задержка видео : -160 мс.
Размер потока : 57,7 Мбайт (4%)
Язык : unknown
ServiceKind/String : Complete Main
Default : Да
Forced : Нет


















   Похожие торренты   Торрент   Размер 
В этой теме нет новых непрочитанных сообщений. Папаньки (1-4 серии из 16) (Ирина Васильева (II), Александр Кананович) [2018, комедия, WEB-DL 1080p]

5 | 1

7.02 ГБ

В этой теме нет новых непрочитанных сообщений. Папаньки (1-6 серии из 16) (Ирина Васильева (II), Александр Кананович) [2018, комедия, WEB-DL 1080p]

2 | 1

10.25 ГБ

В этой теме нет новых непрочитанных сообщений. Папаньки (1-16 серии из 16) (Ирина Васильева (II), Александр Кананович) [2018, комедия, WEB-DL 1080p]

5 | 2

26.87 ГБ

В этой теме нет новых непрочитанных сообщений. Папаньки (1-8 серии из 16) (Ирина Васильева (II), Александр Кананович) [2018, комедия, WEB-DL 1080p]

7 | 5

13.72 ГБ

В этой теме нет новых непрочитанных сообщений. Папаньки (1-10 серии из 16) (Ирина Васильева (II), Александр Кананович) [2018, комедия, WEB-DL 1080p]

0 | 0

17.05 ГБ

В этой теме нет новых непрочитанных сообщений. Папаньки (1-12 серии из 16) (Ирина Васильева (II), Александр Кананович) [2018, комедия, WEB-DLRip-AVC]

4 | 6

7.18 ГБ

В этой теме нет новых непрочитанных сообщений. Папаньки (1-6 серии из 16) (Ирина Васильева (II), Александр Кананович) [2018, комедия, WEB-DLRip]

0 | 0

3.43 ГБ




Вы не можете начинать темы
Вы не можете отвечать на сообщения
Вы не можете редактировать свои сообщения
Вы не можете удалять свои сообщения
Вы не можете добавлять вложения

Перейти:  
 Вход
ppkBB3cker v.2 © 2008-2014 @ PPK
[ Time : 4.338s | 18 Queries | GZIP : Off ]

cron