img image001 image001 image001 image001 image001 image001 image001 image001 image001 image001 image001 image001 image001 image001 image001 image001

Planets Sun Sun Sun
Статистика раздачи
Автор: Снежана | Размер: 1.98 ГБ | Добавлен: 16 окт 2018
Раздают: 6    Качают: 0
Скачать торрент
Скачать торрент
Описание торрента

СообщениеДобавлено: 16 окт 2018 

Четвертая смена (1- серии из 10)

Перевод: Не требуется, cубтитры: отсутствуют
Формат: WEBRip 1080p, MKV, H.264, AC3
Страна: Россия
Режиссер: Алексей Быстрицкий, Степан Коршунов
Жанр: боевик, криминал, мелодрама
Всего серий: 10
Продолжительность: 1 x ~ 00:47:00
Год выпуска: 2017

В ролях: Алексей Чадов, Виктор Добронравов, Александра Тулинова, Янбин Ши, София Чжоу, Артем Башенин, Сергей Чирков, Надежда Борисова, Алексей Варущенко, Ольга Сухарева, Гэ Ян, Михаил Хмуров, Евгений Харитонов (II), Аскар Ильясов, Евгений Шибалко, Баин Бовальдинов, Сергей Галахов, Александр Ким, Лена Куо

Описание: Они встретились в современной Москве. Один – учитель из Китая, другой – бывший сотрудник МВД, уволенный за свой неуправляемый характер. Сейчас он подрабатывает в злачных местах Москвы, где заправляют выходцы из Китая, Вьетнама и других стран дальнего зарубежья. Китайский учитель прилетает в Россию, чтобы найти свою пропавшую дочь. Он не знает ни языка, ни страны, ни законов. Ему нужен помощник, которым становится Данила. Впереди их ждет столкновение с китайским преступным синдикатом. Спокойный и рассудительный, цитирующий Лаоцзы, китайский учитель и «безбашенный», любитель русского рэпа, бывший РУБОПовец действуют спонтанно, неожиданно и не всегда логично. Они открывают для себя мир, недоступный для глаз простого москвича. Мир китайцев в Москве – это государство в государстве. Со своими законами, правилами и порядками. И если днём вся огромная армия китайских мигрантов работает на рынках, в ресторанах и своих магазинчиках, то ночью начинается совершенно другая жизнь, о которой жители столицы даже и не подозревают. Что же такое четвертая смена?

Рейтинг и доп. информация:


Видео: 1920х1080, (16:9), 25 fps, AVC MPEG-TS (x264), ~ 6000 kbps avg, 0.116 bit/pixel
Аудио: 48 kHz, АС3, 2/0 (L,R), ~192.00 kbps avg
Внимание! Раздача ведётся путём добавления новых серий. При каждом добавлении создаётся новый торрент.
Чтобы начать докачку новой серии, пользователям необходимо сделать следующее:
1. Остановить скачивание.
2. Удалить старый торрент у себя из клиента (старые серии удалять не надо).
3. Скачать новый торрент и запустить его у себя в клиенте вместо старого, при этом указать клиенту путь в старую папку куда и должно происходить скачивание новых серий. Ваш клиент при этом должен произвести хеширование (проверку) старой папки и будет докачивать только те серии, которых у вас ещё нет. Старые серии при этом не удаляются, а продолжают раздаваться! Eсли вы уже удалили старые серии, то предотвратить повторную закачку старых серий можно, отжав галочку в соответствующих местах при запуске нового торрента.


Общее
Уникальный идентификатор : 242358764274289279784532605524476369690 (0xB65499A2C751723AB8D6686367731B1A)
Полное имя : C:\Chetvertaya.smena.2017.WEB-DL.(1080p).Nikolspup\Chetvertaya.smena.(01.seriya).2017.WEB-DL.(1080p).Nikolspup.mkv
Формат : Matroska
Версия формата : Version 4
Размер файла : 1,98 Гбайт
Продолжительность : 46 м. 11 с.
Режим общего битрейта : Постоянный
Общий поток : 6145 Кбит/сек
Дата кодирования : UTC 2018-10-15 21:07:02
Программа кодирования : mkvmerge v7.8.0 ('River Man') 32bit built on Mar 27 2015 16:18:02
Библиотека кодирования : libebml v1.3.1 + libmatroska v1.4.2

Видео
Идентификатор : 1
Формат : AVC
Формат/Информация : Advanced Video Codec
Профиль формата :
Настройки формата : 2 Ref Frames
Параметр CABAC формата : Нет
Параметр RefFrames формата : 2 кадра
Идентификатор кодека : V_MPEG4/ISO/AVC
Продолжительность : 46 м. 11 с.
Вид битрейта : Постоянный
Битрейт : 6000 Кбит/сек
Ширина : 1920 пикселей
Высота : 1080 пикселей
Соотношение сторон : 16:9
Режим частоты кадров : Постоянный
Частота кадров : 25,000 кадров/сек
Стандарт вещания : PAL
Цветовое пространство : YUV
Субдискретизация насыщенности : 4:2:0
Битовая глубина : 8 бит
Тип развёртки : Прогрессивная
Бит/(Пиксели*Кадры) : 0.116
Размер потока : 1,92 Гбайт (97%)
Default : Да
Forced : Нет
Цветовой диапазон : Limited
Основные цвета : BT.709
Характеристики трансфера : BT.709
Коэффициенты матрицы : BT.709

Аудио
Идентификатор : 2
Формат : AC-3
Формат/Информация : Audio Coding 3
Коммерческое название : Dolby Digital
Идентификатор кодека : A_AC3
Продолжительность : 46 м. 11 с.
Вид битрейта : Постоянный
Битрейт : 192 Кбит/сек
Каналы : 2 канала
Channel layout : L R
Частота : 48,0 КГц
Частота кадров : 31,250 кадров/сек (1536 SPF)
Битовая глубина : 16 бит
Метод сжатия : С потерями
Размер потока : 63,4 Мбайт (3%)
Язык : Russian
ServiceKind/String : Complete Main
Default : Да
Forced : Нет








   Похожие торренты   Торрент   Размер 
В этой теме нет новых непрочитанных сообщений. Четвертая смена (1-7 серии из 10) (Алексей Быстрицкий, Степан Коршунов) [2017, боевик, криминал, мелодрама, WEBRip 1080p]

3 | 0

14.31 ГБ

В этой теме нет новых непрочитанных сообщений. Четвертая смена (1-3 серии из 10) (Алексей Быстрицкий, Степан Коршунов) [2017, боевик, криминал, мелодрама, WEBRip 1080p]

0 | 0

6.05 ГБ

В этой теме нет новых непрочитанных сообщений. Четвертая смена (1-10 серии из 10) (Алексей Быстрицкий, Степан Коршунов) [2017, боевик, криминал, мелодрама, WEBRip 1080p]

12 | 7

20.51 ГБ

В этой теме нет новых непрочитанных сообщений. Четвертая смена (1-8 серии из 10) (Алексей Быстрицкий, Степан Коршунов) [2017, боевик, криминал, мелодрама, WEBRip 1080p]

8 | 6

16.39 ГБ

В этой теме нет новых непрочитанных сообщений. Четвертая смена (1-5 серии из 10) (Алексей Быстрицкий, Степан Коршунов) [2017, боевик, криминал, мелодрама, WEBRip 1080p]

0 | 0

10.19 ГБ

В этой теме нет новых непрочитанных сообщений. Четвертая смена (1-6 серии из 10) (Алексей Быстрицкий, Степан Коршунов) [2017, боевик, криминал, мелодрама, WEBRip 1080p]

0 | 0

12.24 ГБ

В этой теме нет новых непрочитанных сообщений. Четвертая смена (1-4 серии из 10) (Алексей Быстрицкий, Степан Коршунов) [2017, боевик, криминал, мелодрама, WEBRip 1080p]

0 | 0

8.11 ГБ




Вы не можете начинать темы
Вы не можете отвечать на сообщения
Вы не можете редактировать свои сообщения
Вы не можете удалять свои сообщения
Вы не можете добавлять вложения

Перейти:  
 Вход
ppkBB3cker v.2 © 2008-2014 @ PPK
[ Time : 0.032s | 16 Queries | GZIP : Off ]

cron