img image001 image001 image001 image001 image001 image001 image001 image001 image001 image001 image001 image001 image001 image001 image001 image001

Planets Sun Sun Sun
Статистика раздачи
Автор: Снежана | Размер: 4.8 ГБ | Добавлен: 17 окт 2018
Раздают: 0    Качают: 0
Скачать торрент
Скачать торрент
Описание торрента

СообщениеДобавлено: 17 окт 2018 

Скорая помощь (1-2 серии из 20)
Оценка релиза: 
Перевод: Не требуется, cубтитры: отсутствуют
Формат: HDTV 1080p, MKV, H.264, AC3
Страна: Россия
Режиссер: Богдан Дробязко
Жанр: драма, мелодрама, триллер
Всего серий: 20
Продолжительность: 00:46:24
Год выпуска: 2018

В ролях: Гоша Куценко, Екатерина Волкова, Марина Доможирова, Степан Куликов, Александр Тютин, Пётр Баранчеев, Анастасия Моргун, Александр Амелин (IV), Александра Ровенских, Ирина Аверина, Олег Тактаров, Татьяна Косач-Брындина, Наталья Фенкина, Сергей Серов, Георгий Тополага, Евгения Агенорова, Константин Адаев, Галина Анисимова (II), Александр Аноприков, Мария Антипова, Нина Антюхова, Олеся Астапова, Андрей Балякин, Антон Белый, Анжела Белянская, Артур Бичахчян, Мария Бокова, Игорь Бровин, Сергей Бубнов, Дмитрий Буренков, Кира Бузникова, Сергей Бурлаченко, Вячеслав Буцков, Саша Быстржицкая, Маргарита Быстрякова, Жанна Вельховецкая, Артём Вершинин, Екатерина Виноградова, Светлана Виноградова-Богатт, Наталья Винтилова, Юрий Внуков, Елизавета Водолазская, Максим Деричев, Алексей Гиммельрейх, Владимир Голицын, Иван Гончар, Мария Гончар, Юрий Горин, Елена Грибова, Дмитрий Гурьянов, Дмитрий Гусев, Ольга Дегтярёва, Константин Дзямко, Анастасия Добрынина, Елена Доронина (V), Анастасия Дубровина, Надежда Евтехова, Евгений Еськов, Александр Ефимов, Олег Жуков, Елена Жукова (II), Сергей Журавлёв (III), Александр Загоскин (II), Ирина Иваней, Сергей Калашников, Алексей Каничев, Инна Капнулина, Сергей Кириченко, Артём Кобзев, Елена Ковальчук
Описание: Сюжет истории разворачивается вокруг нового водителя "Скорой помощи", который начинает демонстрировать чудеса диагностики и врачебного искусства на вызовах, спасая немало человеческих жизней. По ходу развития истории выясняется, что он – высококвалифицированный врач, несправедливо лишённый лицензии, и теперь его задача – восстановить своё доброе имя и вернуться в профессию.

Рейтинг и доп. информация:


Видео: 1920x1080 (16:9), 25 fps, AVC MPEG-4 (x264), ~ 7050 kbps , 0.136 bit/pixel
Аудио: 48 kHz, AC3, 2/0 (L,R) ch, ~192.00 kbps avg
Доп. инфо: Запись с канала НТВ HD
Внимание! Раздача ведётся путём добавления новых серий. При каждом добавлении создаётся новый торрент.
Чтобы начать докачку новой серии, пользователям необходимо сделать следующее:
1. Остановить скачивание.
2. Удалить старый торрент у себя из клиента (старые серии удалять не надо).
3. Скачать новый торрент и запустить его у себя в клиенте вместо старого, при этом указать клиенту путь в старую папку куда и должно происходить скачивание новых серий. Ваш клиент при этом должен произвести хеширование (проверку) старой папки и будет докачивать только те серии, которых у вас ещё нет. Старые серии при этом не удаляются, а продолжают раздаваться! Eсли вы уже удалили старые серии, то предотвратить повторную закачку старых серий можно, отжав галочку в соответствующих местах при запуске нового торрента.


General
Unique ID : 239155312348424149281777676606625775945 (0xB3EBA343006026BF81F4DCF837F38149)
Complete name : E:Запись с твSkoraya Pomoshh 2018.HDTV 1080p.R.G.GeneralfilmSkoraya Pomoshh.s01.e01.2018.HDTV 1080p.by.White Smoke.R.G.Generalfilm.mkv
Format : Matroska
Format version : Version 4 / Version 2
File size : 2.34 GiB
Duration : 46 min
Overall bit rate mode : Constant
Overall bit rate : 7 214 kb/s
Movie name : Skoraya Pomoshh.s01.e01.2018.HDTV 1080p.by.White Smoke.R.G.Generalfilm.mkv
Encoded date : UTC 2018-10-16 14:32:17
Writing application : mkvmerge v6.8.0 ('Theme for Great Cities') 64bit built on Mar 2 2014 21:34:26
Writing library : libebml v1.3.0 + libmatroska v1.4.1
Cover : Yes
Attachments : cover.jpg

Video
ID : 1
Format : AVC
Format/Info : Advanced Video Codec
Format profile :
Format settings, CABAC : Yes
Format settings, ReFrames : 3 frames
Format settings, GOP : M=3, N=33
Codec ID : V_MPEG4/ISO/AVC
Duration : 46 min
Bit rate mode : Constant
Bit rate : 7 050 kb/s
Width : 1 920 pixels
Height : 1 080 pixels
Display aspect ratio : 16:9
Frame rate mode : Constant
Frame rate : 25.000 FPS
Standard : PAL
Color space : YUV
Chroma subsampling : 4:2:0
Bit depth : 8 bits
Scan type : Progressive
Bits/(Pixel*Frame) : 0.136
Stream size : 2.23 GiB (95%)
Default : Yes
Forced : No
Color range : Limited
Color primaries : BT.709
Transfer characteristics : BT.709
Matrix coefficients : BT.709

Audio
ID : 2
Format : AC-3
Format/Info : Audio Coding 3
Mode extension : CM (complete main)
Format settings, Endianness : Big
Codec ID : A_AC3
Duration : 46 min
Bit rate mode : Constant
Bit rate : 192 kb/s
Channel(s) : 2 channels
Channel positions : Front: L R
Sampling rate : 48.0 kHz
Frame rate : 31.250 FPS (1536 spf)
Compression mode : Lossy
Stream size : 63.7 MiB (3%)
Default : Yes
Forced : No










   Похожие торренты   Торрент   Размер 
В этой теме нет новых непрочитанных сообщений. Скорая помощь / Скорая (1-10 серии из 20) (Богдан Дробязко) [2018, драма, мелодрама, триллер, WEBRip 1080p]

0 | 0

21 ГБ

В этой теме нет новых непрочитанных сообщений. Скорая помощь / Скорая (1-4 серии из 20) (Богдан Дробязко) [2018, драма, мелодрама, триллер, WEBRip 1080p]

0 | 0

8.43 ГБ

В этой теме нет новых непрочитанных сообщений. Скорая помощь / Скорая (1-6 серии из 20) (Богдан Дробязко) [2018, драма, мелодрама, триллер, WEBRip 1080p]

3 | 1

12.57 ГБ

В этой теме нет новых непрочитанных сообщений. Скорая помощь / Скорая (1-14 серии из 20) (Богдан Дробязко) [2018, драма, мелодрама, триллер, WEBRip 1080p]

1 | 0

29.28 ГБ

В этой теме нет новых непрочитанных сообщений. Скорая помощь / Скорая (1-16 серии из 20) (Богдан Дробязко) [2018, драма, мелодрама, триллер, WEBRip 1080p]

2 | 0

33.56 ГБ

В этой теме нет новых непрочитанных сообщений. Скорая помощь / Скорая (1-12 серии из 20) (Богдан Дробязко) [2018, драма, мелодрама, триллер, WEBRip 1080p]

0 | 0

25.21 ГБ

В этой теме нет новых непрочитанных сообщений. Скорая помощь / Скорая (1-8 серии из 20) (Богдан Дробязко) [2018, драма, мелодрама, триллер, WEBRip 1080p]

0 | 0

16.8 ГБ




Вы не можете начинать темы
Вы не можете отвечать на сообщения
Вы не можете редактировать свои сообщения
Вы не можете удалять свои сообщения
Вы не можете добавлять вложения

Перейти:  
 Вход
ppkBB3cker v.2 © 2008-2014 @ PPK
[ Time : 6.034s | 16 Queries | GZIP : Off ]

cron