img image001 image001 image001 image001 image001 image001 image001 image001 image001 image001 image001 image001 image001 image001 image001 image001

Planets Sun Sun Sun
Статистика раздачи
Автор: Снежана | Размер: 12.57 ГБ | Добавлен: 18 окт 2018
Раздают: 3    Качают: 1
Скачать торрент
Скачать торрент
Описание торрента

СообщениеДобавлено: 18 окт 2018 

Скорая помощь / Скорая (1-6 серии из 20)

Перевод: Не требуется, cубтитры: отсутствуют
Формат: WEBRip 1080p, MKV, H.264, AC3
Страна: Россия
Режиссер: Богдан Дробязко
Жанр: драма, мелодрама, триллер
Всего серий: 20
Продолжительность: 6 x ~ 00:49:00
Год выпуска: 2018

В ролях: Гоша Куценко, Екатерина Волкова, Марина Доможирова, Степан Куликов, Александр Тютин, Пётр Баранчеев, Анастасия Моргун, Александр Амелин (IV), Александра Ровенских, Ирина Аверина, Олег Тактаров, Татьяна Косач-Брындина, Наталья Фенкина, Сергей Серов, Георгий Тополага, Евгения Агенорова, Константин Адаев, Галина Анисимова (II), Александр Аноприков, Мария Антипова, Нина Антюхова, Олеся Астапова, Андрей Балякин, Антон Белый, Анжела Белянская, Артур Бичахчян, Мария Бокова, Игорь Бровин, Сергей Бубнов, Дмитрий Буренков, Кира Бузникова, Сергей Бурлаченко, Вячеслав Буцков, Саша Быстржицкая, Маргарита Быстрякова, Жанна Вельховецкая, Артём Вершинин, Екатерина Виноградова, Светлана Виноградова-Богатт, Наталья Винтилова, Юрий Внуков, Елизавета Водолазская, Максим Деричев, Алексей Гиммельрейх, Владимир Голицын, Иван Гончар, Мария Гончар, Юрий Горин, Елена Грибова, Дмитрий Гурьянов, Дмитрий Гусев, Ольга Дегтярёва, Константин Дзямко, Анастасия Добрынина, Елена Доронина (V), Анастасия Дубровина, Надежда Евтехова, Евгений Еськов, Александр Ефимов, Олег Жуков, Елена Жукова (II), Сергей Журавлёв (III), Александр Загоскин (II), Ирина Иваней, Сергей Калашников, Алексей Каничев, Инна Капнулина, Сергей Кириченко, Артём Кобзев, Елена Ковальчук

Описание: Сюжет истории разворачивается вокруг нового водителя "Скорой помощи", который начинает демонстрировать чудеса диагностики и врачебного искусства на вызовах, спасая немало человеческих жизней. По ходу развития истории выясняется, что он – высококвалифицированный врач, несправедливо лишённый лицензии, и теперь его задача – восстановить своё доброе имя и вернуться в профессию.

Рейтинг и доп. информация:


Видео: 1920x1080 (16:9), 25 fps, AVC MPEG-4 (x264), ~ 6000 kbps , 0.116 bit/pixel
Аудио: 48 kHz, AC3, 2/0 (L,R) ch, ~192.00 kbps avg
Внимание! Раздача ведётся путём добавления новых серий. При каждом добавлении создаётся новый торрент.
Чтобы начать докачку новой серии, пользователям необходимо сделать следующее:
1. Остановить скачивание.
2. Удалить старый торрент у себя из клиента (старые серии удалять не надо).
3. Скачать новый торрент и запустить его у себя в клиенте вместо старого, при этом указать клиенту путь в старую папку куда и должно происходить скачивание новых серий. Ваш клиент при этом должен произвести хеширование (проверку) старой папки и будет докачивать только те серии, которых у вас ещё нет. Старые серии при этом не удаляются, а продолжают раздаваться! Eсли вы уже удалили старые серии, то предотвратить повторную закачку старых серий можно, отжав галочку в соответствующих местах при запуске нового торрента.


Общее
Уникальный идентификатор : 202513821605442059818278044629963741818 (0x985ABE4A1A5C222A9E4D7AE6D7199A7A)
Полное имя : C:\Skoraya.pomoshch.2018.WEB-DL.(1080p).Nikolspup\Skoraya.pomoshch.(01.seriya).2018.WEB-DL.(1080p).Nikolspup.mkv
Формат : Matroska
Версия формата : Version 4
Размер файла : 2,04 Гбайт
Продолжительность : 48 м. 23 с.
Режим общего битрейта : Постоянный
Общий поток : 6051 Кбит/сек
Дата кодирования : UTC 2018-10-15 19:12:41
Программа кодирования : mkvmerge v7.8.0 ('River Man') 32bit built on Mar 27 2015 16:18:02
Библиотека кодирования : libebml v1.3.1 + libmatroska v1.4.2

Видео
Идентификатор : 1
Формат : AVC
Формат/Информация : Advanced Video Codec
Профиль формата :
Настройки формата : 2 Ref Frames
Параметр CABAC формата : Нет
Параметр RefFrames формата : 2 кадра
Идентификатор кодека : V_MPEG4/ISO/AVC
Продолжительность : 48 м. 23 с.
Вид битрейта : Постоянный
Битрейт : 6000 Кбит/сек
Ширина : 1920 пикселей
Высота : 1080 пикселей
Соотношение сторон : 16:9
Режим частоты кадров : Постоянный
Частота кадров : 25,000 кадров/сек
Стандарт вещания : PAL
Цветовое пространство : YUV
Субдискретизация насыщенности : 4:2:0
Битовая глубина : 8 бит
Тип развёртки : Прогрессивная
Бит/(Пиксели*Кадры) : 0.116
Размер потока : 1,94 Гбайт (95%)
Default : Да
Forced : Нет
Цветовой диапазон : Limited
Основные цвета : BT.709
Характеристики трансфера : BT.709
Коэффициенты матрицы : BT.709

Аудио
Идентификатор : 2
Формат : AC-3
Формат/Информация : Audio Coding 3
Коммерческое название : Dolby Digital
Идентификатор кодека : A_AC3
Продолжительность : 48 м. 23 с.
Вид битрейта : Постоянный
Битрейт : 192 Кбит/сек
Каналы : 2 канала
Channel layout : L R
Частота : 48,0 КГц
Частота кадров : 31,250 кадров/сек (1536 SPF)
Битовая глубина : 16 бит
Метод сжатия : С потерями
Размер потока : 66,4 Мбайт (3%)
Язык : Russian
ServiceKind/String : Complete Main
Default : Да
Forced : Нет








   Похожие торренты   Торрент   Размер 
В этой теме нет новых непрочитанных сообщений. Скорая помощь / Скорая (1-4 серии из 20) (Богдан Дробязко) [2018, драма, мелодрама, триллер, WEBRip 1080p]

0 | 0

8.43 ГБ

В этой теме нет новых непрочитанных сообщений. Скорая помощь / Скорая (1-10 серии из 20) (Богдан Дробязко) [2018, драма, мелодрама, триллер, WEBRip 1080p]

0 | 0

21 ГБ

В этой теме нет новых непрочитанных сообщений. Скорая помощь / Скорая (1-8 серии из 20) (Богдан Дробязко) [2018, драма, мелодрама, триллер, WEBRip 1080p]

0 | 0

16.8 ГБ

В этой теме нет новых непрочитанных сообщений. Скорая помощь / Скорая (1-20 серии из 20) (Богдан Дробязко) [2018, драма, мелодрама, триллер, WEBRip 1080p]

7 | 0

41.76 ГБ

В этой теме нет новых непрочитанных сообщений. Скорая помощь / Скорая (1-16 серии из 20) (Богдан Дробязко) [2018, драма, мелодрама, триллер, WEBRip 1080p]

2 | 0

33.56 ГБ

В этой теме нет новых непрочитанных сообщений. Скорая помощь / Скорая (1-14 серии из 20) (Богдан Дробязко) [2018, драма, мелодрама, триллер, WEBRip 1080p]

1 | 0

29.28 ГБ

В этой теме нет новых непрочитанных сообщений. Скорая помощь / Скорая (1-12 серии из 20) (Богдан Дробязко) [2018, драма, мелодрама, триллер, WEBRip 1080p]

0 | 0

25.21 ГБ




Вы не можете начинать темы
Вы не можете отвечать на сообщения
Вы не можете редактировать свои сообщения
Вы не можете удалять свои сообщения
Вы не можете добавлять вложения

Перейти:  
 Вход
ppkBB3cker v.2 © 2008-2014 @ PPK
[ Time : 1.945s | 16 Queries | GZIP : Off ]

cron